<?xml version="1.0" standalone="no"?>
<!DOCTYPE svg PUBLIC "-//W3C//DTD SVG 1.1//EN" "http://www.w3.org/Graphics/SVG/1.1/DTD/svg11.dtd" >
<svg xmlns="http://www.w3.org/2000/svg" xmlns:xlink="http://www.w3.org/1999/xlink" version="1.1">
<metadata>
Created by FontForge 20170731 at Tue May 18 11:20:07 2021
 By Aleksey,,,
Copyright (c) 2019 by Connary Fagen. All rights reserved.
</metadata>
<defs>
<font id="ArtifexCF-Heavy" horiz-adv-x="1433" >
  <font-face 
    font-family="Artifex CF Heavy"
    font-weight="900"
    font-stretch="normal"
    units-per-em="2048"
    panose-1="0 0 10 0 0 0 0 0 0 0"
    ascent="1638"
    descent="-410"
    x-height="952"
    cap-height="1434"
    bbox="-821 -814.786 2992.67 1962.87"
    underline-thickness="102"
    underline-position="-307"
    unicode-range="U+0020-FB02"
  />
<missing-glyph horiz-adv-x="1024" 
d="M840 1638v-2048h-650v2048h650zM682 1501h-338v-67h133v-76h-135v-68h340v68h-135v76h135v67zM547 1237h-205v-213h340v70h-135v143zM477 1167v-73h-67v73h67zM682 969h-340v-68h135v-76h-135v-67h205v143h135v68zM682 846h-68v-135h-272v-70h340v205zM682 596h-205v-115
h70v47h67v-96h-204v164h-68v-231h340v231zM682 242h-340v-232h340v232zM614 174v-96h-204v96h204zM682 -37h-340v-67h143l-143 -97v-67h340v67h-209l143 97h66v67z" />
    <glyph glyph-name="fl" unicode="fl" horiz-adv-x="1550" 
d="M1485 72q6 -4 6 -20t-6.5 -34t-14.5 -18h-507q-8 0 -15 18t-7 34t7 20q137 18 137 155v877v24q-2 66 -27 117.5t-62 82t-86 50t-93 26.5t-88 7q-70 0 -116 -19t-71 -58t-34.5 -89t-9.5 -123v-102q0 -68 84 -68h237q25 0 28 -46.5t-18 -91t-53 -38.5l-78 12
q-116 18 -158 -2t-42 -84v-450q0 -41 11 -70t26.5 -46t49.5 -29.5t63 -18.5t85 -14q10 -2 4.5 -38t-14.5 -36h-619q-8 0 -14.5 18.5t-6.5 35t7 20.5q59 7 100 39t41 98v491q0 61 -34 95.5t-115 46.5q-10 2 -10 55t10 53h92q33 0 45 13.5t12 54.5q0 116 50.5 215.5t149 177
t260 122t368.5 44.5q217 0 309 -31q33 -11 16 -16l-2 -2q10 -10 7 -27q-41 -193 -41 -481v-795q0 -138 137 -155z" />
    <glyph glyph-name=".notdef" horiz-adv-x="1024" 
d="M840 1638v-2048h-650v2048h650zM682 1501h-338v-67h133v-76h-135v-68h340v68h-135v76h135v67zM547 1237h-205v-213h340v70h-135v143zM477 1167v-73h-67v73h67zM682 969h-340v-68h135v-76h-135v-67h205v143h135v68zM682 846h-68v-135h-272v-70h340v205zM682 596h-205v-115
h70v47h67v-96h-204v164h-68v-231h340v231zM682 242h-340v-232h340v232zM614 174v-96h-204v96h204zM682 -37h-340v-67h143l-143 -97v-67h340v67h-209l143 97h66v67z" />
    <glyph glyph-name=".null" horiz-adv-x="0" 
 />
    <glyph glyph-name="nonmarkingreturn" horiz-adv-x="682" 
 />
    <glyph glyph-name="space" unicode=" " horiz-adv-x="399" 
 />
    <glyph glyph-name="exclam" unicode="!" horiz-adv-x="598" 
d="M238 483q-21 309 -84 897q-3 36 71 60.5t148 18t71 -45.5q-14 -155 -43.5 -440.5t-42.5 -442.5q-1 -29 -41 -59q-45 -34 -67 -16q-10 8 -12 28zM299 -20q-45 0 -110.5 62.5t-65.5 111.5t65.5 111.5t110.5 62.5t110.5 -62.5t65.5 -111.5t-65.5 -111.5t-110.5 -62.5z" />
    <glyph glyph-name="quotedbl" unicode="&#x22;" horiz-adv-x="845" 
d="M371 1466q-13 -73 -43 -243t-45 -254q-3 -17 -40.5 -29t-74 -11t-35.5 17q4 116 14 488q1 27 59 46t114 16t51 -30zM733 1466q-13 -73 -43 -243t-45 -254q-3 -17 -40.5 -29t-73.5 -11t-35 17q4 116 14 488q1 27 59 46t113.5 16t50.5 -30z" />
    <glyph glyph-name="numbersign" unicode="#" horiz-adv-x="1415" 
d="M1286 989q18 0 25 -36.5t-2 -72.5t-27 -36h-258l-84 -254h244q18 0 25 -36.5t-2 -73t-27 -36.5h-287l-148 -444q-3 -11 -19.5 -14t-37.5 1.5t-40.5 12.5t-31 19t-8.5 22l133 403h-247l-146 -444q-3 -11 -20 -14.5t-38 1t-40.5 12t-31.5 19.5t-9 23l133 403h-213
q-18 0 -25 36.5t2 73t27 36.5h258l84 254h-244q-18 0 -24.5 36t2.5 72.5t27 36.5h286l148 445q3 11 19.5 14t37.5 -1.5t40.5 -12.5t31 -19t8.5 -22l-133 -404h248l145 445q3 11 20 14.5t38 -1t40.5 -12t31.5 -19.5t9 -23l-133 -404h213zM788 590l84 254h-245l-84 -254h245z
" />
    <glyph glyph-name="dollar" unicode="$" horiz-adv-x="1144" 
d="M1040 524q0 -129 -105 -228t-294 -124v-221q0 -24 -45 -15q-49 10 -72 38q-8 10 -8 20v172q-107 2 -200.5 23.5t-146.5 55.5t-44 70l20 86q8 35 24 43t47 -5.5t67 -34.5t100.5 -46.5t132.5 -38.5l2 355l-172 53q-111 36 -166 120.5t-55 180.5q0 135 106 230.5t289 115.5
v211q0 24 48 13q50 -12 71 -38q6 -8 6 -16v-166q141 -8 242 -50t88 -93l-29 -94q-9 -30 -25 -38t-43.5 2.5t-57 27.5t-79 41t-96.5 38l-2 -331l178 -58q77 -25 128 -76t71 -106.5t20 -116.5zM457 940l61 -20l2 315q-12 2 -39 2q-186 0 -186 -139q0 -54 36 -91t126 -67z
M653 307q110 0 162.5 35t52.5 109q0 60 -32.5 97t-116.5 62l-76 25l-2 -328h12z" />
    <glyph glyph-name="percent" unicode="%" horiz-adv-x="1327" 
d="M285 459q-18 -22 -78 10q-46 25 -53 46q-2 6 2 9q63 52 143 133t223 236l199 215q193 209 321 367q18 22 78 -11q47 -25 53 -46q2 -6 -2 -9q-63 -52 -143 -133t-223 -236l-199 -215q-199 -215 -321 -366zM307 1057q-91 0 -153 60t-62 145t61.5 144.5t153.5 59.5
q90 0 151.5 -59.5t61.5 -144.5t-61.5 -145t-151.5 -60zM322 1155q63 0 63 82q0 131 -94 131q-64 0 -64 -82q0 -47 23 -89t72 -42zM1024 467q-93 0 -155 59.5t-62 145.5t62 145.5t155 59.5q89 0 150 -60t61 -145t-61 -145t-150 -60zM1036 565q64 0 64 82q0 131 -94 131
q-64 0 -64 -82q0 -47 22.5 -89t71.5 -42z" />
    <glyph glyph-name="ampersand" unicode="&#x26;" horiz-adv-x="1820" 
d="M1694 133q35 0 35 -37q0 -56 -121 -112q-95 -45 -262 25t-357 218q-86 -95 -210 -177.5t-206 -82.5q-36 0 -84 12.5t-102 36t-106.5 60t-94.5 80.5t-68 103t-26 122q0 131 109.5 236.5t277.5 146.5q-112 166 -112 270q0 35 12 77.5t37 92.5t69 95.5t101.5 83.5
t141.5 60.5t183 22.5q121 0 201 -33t49 -90l-41 -73q-33 -58 -59.5 -74t-53.5 0t-55 41.5t-78.5 49.5t-109.5 24q-41 0 -71.5 -12t-45.5 -28.5t-24 -39.5t-11 -38t-2 -32q0 -70 56.5 -179t145 -224t199.5 -232.5t218 -209t203.5 -149.5t152.5 -58q30 0 64.5 12t44.5 12z
M1092 664q-43 0 -39 22q5 29 76 67q132 68 282 70q41 0 84.5 -8t78 -27t44.5 -45.5t-24.5 -69t-118.5 -91.5q-27 -10 -52.5 -6t-42.5 12q-98 39 -163 57.5t-125 18.5zM645 133q77 0 124 40.5t48 105t-51 145.5q-121 118 -211 233q-213 -42 -213 -215q0 -127 93.5 -218
t209.5 -91z" />
    <glyph glyph-name="quotesingle" unicode="'" horiz-adv-x="483" 
d="M371 1466q-13 -73 -43 -243t-45 -254q-3 -17 -40.5 -29t-74 -11t-35.5 17q4 116 14 488q1 27 59 46t114 16t51 -30z" />
    <glyph glyph-name="parenleft" unicode="(" horiz-adv-x="837" 
d="M778 -152q12 -1 17 -25t0 -47t-17 -22q-81 6 -168.5 46.5t-175 121t-156.5 190.5t-112 270.5t-43 344.5q0 143 23 269t62 221.5t92 174.5t112 133.5t123.5 93t125 58t117.5 23.5q12 1 17 -22t0 -47t-17 -25q-54 -4 -106.5 -34t-104 -97t-90 -164t-62.5 -248t-24 -336
q0 -146 17 -273t46.5 -220t67.5 -166.5t82 -119.5t87.5 -71t86.5 -29z" />
    <glyph glyph-name="parenright" unicode=")" horiz-adv-x="837" 
d="M59 -152q43 4 86.5 29t87.5 71t82 119.5t67.5 166.5t46.5 220t17 273q0 185 -24 336t-62.5 248t-90 164t-104 97t-106.5 34q-12 1 -17 25t0 47t17 22q67 -5 138 -32t146 -76t141 -129t118 -182t82.5 -245t30.5 -309q0 -155 -30 -293t-82 -240.5t-118 -185.5t-140 -136
t-146.5 -83t-139.5 -35q-12 -1 -17 22t0 47t17 25z" />
    <glyph glyph-name="asterisk" unicode="*" horiz-adv-x="1005" 
d="M504 1294q-39 0 -65.5 27.5t-26.5 64.5q0 39 27.5 66t64.5 27q39 0 64.5 -27.5t25.5 -65.5q0 -39 -26.5 -65.5t-63.5 -26.5zM276 1178q-39 0 -65.5 27.5t-26.5 64.5q0 39 27.5 65.5t64.5 26.5q38 0 64.5 -27.5t26.5 -64.5t-26.5 -64.5t-64.5 -27.5zM731 1178
q-38 0 -65 27.5t-27 64.5t27 64.5t65 27.5t64 -27.5t26 -64.5q0 -39 -26.5 -65.5t-63.5 -26.5zM504 1044q-39 0 -65.5 27.5t-26.5 65.5q0 39 27.5 65.5t64.5 26.5q39 0 64.5 -27t25.5 -65q0 -39 -26.5 -66t-63.5 -27zM276 911q-39 0 -65.5 27.5t-26.5 65.5q0 39 27.5 65.5
t64.5 26.5q38 0 64.5 -27.5t26.5 -64.5t-26.5 -65t-64.5 -28zM731 911q-38 0 -65 28t-27 65t27 64.5t65 27.5t64 -27.5t26 -64.5q0 -39 -26.5 -66t-63.5 -27zM504 979q39 0 64.5 -27t25.5 -65q0 -39 -26.5 -65.5t-63.5 -26.5q-39 0 -65.5 27.5t-26.5 64.5q0 39 27.5 65.5
t64.5 26.5z" />
    <glyph glyph-name="plus" unicode="+" horiz-adv-x="1058" 
d="M936 692v-82h-367v-366h-82v366h-364v82h364v365h82v-365h367z" />
    <glyph glyph-name="comma" unicode="," horiz-adv-x="600" 
d="M139 -356q-15 -9 -46 11q-31 21 -18 37l3 3q79 72 138.5 154.5t59.5 150.5q0 19 -22 39.5t-48.5 35t-48.5 36t-22 41.5q0 48 67 112t111 64t109 -65t65 -113q0 -121 -101.5 -266.5t-246.5 -239.5z" />
    <glyph glyph-name="hyphen" unicode="-" horiz-adv-x="901" 
d="M168 420q-17 -3 -27.5 31t-6 70.5t21.5 39.5l577 94q17 3 27.5 -31t6 -70.5t-21.5 -39.5z" />
    <glyph glyph-name="period" unicode="." horiz-adv-x="577" 
d="M289 -20q-45 0 -110.5 62.5t-65.5 111.5t65.5 111.5t110.5 62.5t110.5 -62.5t65.5 -111.5t-65.5 -111.5t-110.5 -62.5z" />
    <glyph glyph-name="slash" unicode="/" horiz-adv-x="931" 
d="M725 1624q3 11 19.5 14t37.5 -1.5t40.5 -12.5t31 -19t8.5 -22l-653 -1993q-3 -11 -20 -14.5t-38 1t-40.5 12t-31.5 19.5t-9 23z" />
    <glyph glyph-name="zero" unicode="0" horiz-adv-x="1376" 
d="M688 -33q-175 0 -307.5 101.5t-200 271t-67.5 379.5q0 150 36.5 283.5t106 237.5t180 165t248.5 61q134 0 244 -58.5t183 -160t113 -238t40 -292.5q0 -151 -37 -285t-107 -238.5t-181.5 -165.5t-250.5 -61zM743 109q44 0 84.5 25t76.5 79t57.5 152.5t21.5 230.5
q0 205 -49 373.5t-130 262t-175 93.5q-34 0 -65.5 -15t-62.5 -51t-54 -90t-37.5 -139t-14.5 -192q0 -154 28.5 -290.5t76.5 -232t111.5 -151t131.5 -55.5z" />
    <glyph glyph-name="one" unicode="1" horiz-adv-x="905" 
d="M63 0q-8 0 -14 18.5t-5.5 37.5t9.5 20q69 7 111 16t79 28t53.5 52.5t16.5 85.5v774q0 52 -10 81t-41.5 45.5t-75 21t-125.5 4.5q-21 0 -21 38.5t19 43.5q261 64 510 192q30 15 56 -3.5t18 -45.5q-37 -148 -37 -377v-774q0 -42 11 -72t28.5 -48.5t48.5 -31t62.5 -19
t79.5 -11.5q8 -1 8.5 -20t-5.5 -37.5t-14 -18.5h-762z" />
    <glyph glyph-name="two" unicode="2" horiz-adv-x="1241" 
d="M967 -12q-188 20 -381 20q-278 0 -477 -12q-20 -2 -26.5 15.5t9.5 37.5l492 553q66 73 111.5 150.5t65 144t27 112t7.5 83.5q0 41 -8.5 77t-28.5 69.5t-59 53t-93 19.5q-140 0 -292 -132q-17 -15 -45 -42q-59 -54 -76 -57q-16 -2 -21 21q-4 15 -4 44v104q0 94 124 155.5
t304 61.5q216 0 352.5 -107.5t136.5 -271.5q0 -116 -80 -235t-262 -291l-288 -272q-25 -25 -19.5 -42.5t39.5 -17.5h43q274 0 375.5 16t159.5 74q19 20 50.5 11.5t22.5 -35.5l-69 -242q-12 -36 -31 -52.5t-59 -12.5z" />
    <glyph glyph-name="three" unicode="3" horiz-adv-x="1144" 
d="M618 903q134 -1 231.5 -60.5t145 -155.5t47.5 -216q0 -155 -84 -271t-223.5 -174.5t-314.5 -58.5q-99 0 -185 21t-98 63q-19 60 31 60h84q120 0 209.5 14.5t161 48.5t108.5 96t37 152q0 278 -358 278q-21 0 -31 42t4 57l309 399h-76h-55h-54.5t-48 -0.5t-48 -1t-42 -2
t-44 -3.5t-38.5 -5t-40 -6.5t-35 -9t-37 -11.5q-22 -8 -37.5 4.5t-9.5 32.5l63 172q13 36 35.5 51t75.5 15h641q20 0 24.5 -44.5t-14.5 -66.5z" />
    <glyph glyph-name="four" unicode="4" horiz-adv-x="1384" 
d="M1237 514q20 3 36.5 4.5t24 -11t0.5 -40.5l-45 -164q-9 -38 -35 -43.5t-53 6.5q-49 14 -157 17q0 -59 6 -269q1 -19 -83.5 -33t-156.5 -12.5t-82 13.5q20 137 25 303h-565q-14 0 -45.5 82t-24.5 90l698 1007q18 13 77.5 8t124.5 -18.5t65 -19.5q-41 -218 -41 -435v-512
q114 5 231 27zM244 485h477v2v600q0 12 -7 17t-17.5 0.5t-20.5 -17.5z" />
    <glyph glyph-name="five" unicode="5" horiz-adv-x="1093" 
d="M291 1016q161 -2 295.5 -45.5t221.5 -114t135 -160t48 -186.5q0 -113 -60 -216t-156 -173.5t-217 -112t-243 -41.5q-112 0 -178 109q-23 50 -9.5 73t44.5 23q72 0 118 0.5t104.5 2.5t95 6t79 11.5t68.5 18t52 26t40 35.5t22.5 46t8.5 59q0 44 -14.5 93t-53.5 106t-98 101
t-158.5 73.5t-224.5 29.5q-21 0 -50 30t-26 48l90 526q7 50 41 50h45q165 0 244.5 1.5t176.5 13t159 34.5q22 8 38 -4t9 -33l-66 -176q-13 -36 -30 -47.5t-70 -12.5l-450 -10z" />
    <glyph glyph-name="six" unicode="6" horiz-adv-x="1316" 
d="M758 952q53 0 110 -14.5t118 -50t108.5 -88t78.5 -136.5t31 -186q0 -100 -29.5 -184t-80 -143.5t-118.5 -101t-146 -61.5t-162 -20q-249 0 -402 169.5t-153 469.5q0 224 90.5 409t249.5 302t362 151q47 7 97 -28q35 -25 26 -39q-3 -4 -10 -6q-124 -33 -219 -93.5
t-155.5 -141t-94.5 -173.5t-43 -199q78 85 169 124.5t173 39.5zM692 100q44 0 81.5 15t70.5 47t52 92.5t19 142.5q0 168 -72.5 279.5t-191.5 111.5q-99 0 -169 -80.5t-70 -234.5q0 -160 75 -266.5t205 -106.5z" />
    <glyph glyph-name="seven" unicode="7" horiz-adv-x="1110" 
d="M133 1182q-25 -2 -35.5 15.5t-6 49t12.5 62.5t23.5 68t22.5 54t14 31q21 40 65 15q83 -43 226 -43h532q39 0 39 -29q0 -27 -49 -143v-1l-1 -1v-1l-1 -1v-2q-40 -93 -64 -154l-422 -1063q-20 -47 -143 -67q-106 -17 -164 1q-30 10 -20 27l663 1171q19 28 14 47.5t-36 16.5
z" />
    <glyph glyph-name="eight" unicode="8" horiz-adv-x="1245" 
d="M815 821q55 -33 96 -61.5t85 -70t72 -84.5t46.5 -101t18.5 -123q0 -102 -42 -182.5t-114 -130.5t-162.5 -75.5t-193.5 -25.5q-104 0 -194.5 25t-161 72.5t-111.5 124t-41 171.5q0 249 276 406q-192 151 -192 346q0 86 34.5 154.5t93.5 111.5t135.5 65.5t162.5 22.5
q115 0 211 -39t154.5 -115t58.5 -175q0 -101 -61 -177.5t-171 -138.5zM623 1333q-91 0 -131.5 -49t-40.5 -117q0 -46 18.5 -85t58.5 -74.5t77.5 -60.5t99.5 -60q56 60 82 129t26 131q0 81 -48 133.5t-142 52.5zM627 102q72 0 126 38t77.5 89.5t23.5 104.5q0 28 -9 55
t-22.5 49.5t-37 46.5t-45.5 42.5t-56 42t-60 39.5t-65.5 41t-64.5 42q-115 -124 -115 -289q0 -130 66 -215.5t182 -85.5z" />
    <glyph glyph-name="nine" unicode="9" horiz-adv-x="1316" 
d="M649 1466q247 0 401 -170t154 -469q0 -336 -196.5 -573t-505.5 -289q-47 -7 -98 28q-36 26 -27 40q3 4 10 6q124 33 219 93.5t155.5 140.5t94.5 172t43 198q-76 -83 -167.5 -122.5t-174.5 -39.5q-52 0 -108.5 14.5t-117.5 50t-108.5 88t-78.5 136.5t-31 186
q0 100 29.5 184.5t80 144t118.5 101t146 61t162 19.5zM666 645q99 0 169 81t70 235q0 160 -74.5 266t-205.5 106q-44 0 -81.5 -15t-71 -47t-52.5 -92.5t-19 -142.5q0 -168 73 -279.5t192 -111.5z" />
    <glyph glyph-name="colon" unicode=":" horiz-adv-x="577" 
d="M289 641q-45 0 -110.5 62.5t-65.5 111.5t65.5 111.5t110.5 62.5t110.5 -62.5t65.5 -111.5t-65.5 -111.5t-110.5 -62.5zM289 -20q-45 0 -110.5 62.5t-65.5 111.5t65.5 111.5t110.5 62.5t110.5 -62.5t65.5 -111.5t-65.5 -111.5t-110.5 -62.5z" />
    <glyph glyph-name="semicolon" unicode=";" horiz-adv-x="641" 
d="M342 641q-45 0 -110.5 62.5t-65.5 111.5t65.5 111.5t110.5 62.5t110.5 -62.5t65.5 -111.5t-65.5 -111.5t-110.5 -62.5zM180 -356q-15 -9 -46 11q-31 21 -18 37l3 3q79 72 138.5 154.5t59.5 150.5q0 19 -22 39.5t-48.5 35t-48.5 36t-22 41.5q0 48 67 112t111 64t109 -65
t65 -113q0 -121 -101.5 -266.5t-246.5 -239.5z" />
    <glyph glyph-name="less" unicode="&#x3c;" horiz-adv-x="983" 
d="M123 668l706 323l31 -76l-647 -294l647 -297l-31 -76l-706 323v97z" />
    <glyph glyph-name="equal" unicode="=" horiz-adv-x="1017" 
d="M895 856v-82h-772v82h772zM895 528v-82h-772v82h772z" />
    <glyph glyph-name="greater" unicode="&#x3e;" horiz-adv-x="983" 
d="M860 668v-97l-706 -323l-31 76l647 297l-647 294l31 76z" />
    <glyph glyph-name="question" unicode="?" horiz-adv-x="1052" 
d="M342 426q-2 3 -13 16.5t-17 22t-14 23.5t-11.5 31.5t-3.5 35.5q0 29 9 56.5t19.5 46.5t36.5 47.5t40.5 43t51.5 48.5q135 125 182.5 207.5t47.5 162.5q0 77 -34 107.5t-112 30.5q-72 0 -141.5 -25t-110.5 -52.5t-75.5 -46.5t-51.5 -7.5t-24 65.5l-8 68q-6 46 49.5 84
t136.5 56.5t164 18.5q71 0 139 -14.5t129.5 -44.5t108 -73t73.5 -104t27 -132q0 -62 -19 -115t-62.5 -106t-95.5 -100t-138 -113q-114 -88 -149.5 -126t-35.5 -71q0 -13 -43.5 -34t-54.5 -7zM424 -20q-45 0 -110.5 62.5t-65.5 111.5t65.5 111.5t110.5 62.5t110.5 -62.5
t65.5 -111.5t-65.5 -111.5t-110.5 -62.5z" />
    <glyph glyph-name="at" unicode="@" horiz-adv-x="1785" 
d="M956 -125q-181 0 -336.5 51.5t-267.5 144t-175.5 228t-63.5 297.5q0 158 60.5 301t165.5 248t257.5 167t327.5 62q162 0 303 -53t238 -143t152.5 -211.5t55.5 -255.5q0 -106 -36 -196t-92.5 -145.5t-121 -86.5t-125.5 -31q-92 0 -162.5 65.5t-95.5 169.5
q-35 -87 -120.5 -160t-165.5 -73q-35 0 -71.5 15t-70.5 45t-55.5 83t-21.5 121q0 119 61.5 228t164 176t214.5 67q26 0 49.5 -5t35.5 -9.5t37.5 -17t37.5 -17.5l67 35q13 8 37 -4.5t16 -36.5q-42 -119 -58.5 -217.5t-10.5 -162t27.5 -107.5t51 -63t64.5 -19q71 0 125.5 77
t54.5 224q0 119 -45 227t-125.5 190t-200.5 130.5t-261 48.5q-119 0 -221 -37.5t-180 -109t-122.5 -185.5t-44.5 -258q0 -160 55.5 -288.5t154 -213.5t234 -130.5t296.5 -45.5q192 0 297 49q13 6 29.5 -9.5t20 -34t-9.5 -28.5q-174 -96 -430 -96zM827 406q27 0 49 13
t40 41.5t32 60.5t27.5 84t23.5 97t23 113l-80 31q-85 32 -151 -61t-66 -218q0 -74 29 -117.5t73 -43.5z" />
    <glyph glyph-name="A" unicode="A" horiz-adv-x="1640" 
d="M1573 78q20 -3 17.5 -40.5t-21.5 -37.5h-592q-21 0 -21.5 37.5t15.5 40.5q23 4 37 8.5t33 13.5t27.5 23.5t14 36t-2 53.5t-25.5 74l-11 18q-14 38 -33.5 49t-62.5 11h-401q-48 0 -68 -11t-37 -49l-6 -18q-20 -48 -24 -84t4 -57.5t28.5 -36t42.5 -21t54 -10.5
q14 -2 17.5 -21.5t-3.5 -38t-20 -18.5h-461q-17 0 -20 37.5t14 40.5q34 6 56.5 15t48 30.5t49 61t50.5 102.5l346 805q61 135 83 204t22 127q0 9 71.5 25t75.5 6l500 -1165q51 -118 94 -159.5t109 -51.5zM911 496q23 0 35 7t4 27l-205 496l-206 -496q-8 -20 4 -27t37 -7h331
z" />
    <glyph glyph-name="B" unicode="B" horiz-adv-x="1480" 
d="M985 780q74 0 143 -25t122.5 -70t85.5 -114.5t32 -152.5q0 -128 -76.5 -225t-207.5 -147t-296 -50q-38 0 -155.5 6t-214.5 6q-236 0 -346 -12q-12 -2 -18.5 41.5t5.5 46.5q100 27 132 45q73 50 75 156v895q0 44 -13 76t-40 51.5t-51.5 30.5t-63.5 22q-12 3 -6.5 41.5
t17.5 36.5q107 -13 260 -13q113 0 244 6.5t161 6.5q131 0 235 -35.5t169 -112t67 -184.5q3 -117 -66.5 -201t-193.5 -110v-15zM684 1319q-64 0 -90.5 -30.5t-26.5 -108.5v-359h197q170 0 170 215q0 129 -65 206t-185 77zM766 115q283 0 283 247q0 140 -78.5 241.5
t-206.5 101.5h-197v-420q0 -87 45 -128.5t154 -41.5z" />
    <glyph glyph-name="C" unicode="C" horiz-adv-x="1462" 
d="M913 -33q-108 0 -216 24t-214 80t-187.5 136.5t-132 204.5t-50.5 274q0 110 25.5 216t86 209.5t150 181t228 125.5t308.5 48q118 0 220.5 -21.5t157 -56t42.5 -69.5l-31 -88q-22 -63 -44.5 -86.5t-46.5 -16.5t-64.5 30.5t-86 51t-124 49t-166.5 21.5q-104 0 -181.5 -33
t-123.5 -95t-68 -143t-22 -184q0 -134 39 -244t101 -180t143 -118.5t161 -69t158 -20.5q48 0 164.5 22.5t163.5 54.5q12 8 38 -22t17 -43q-40 -60 -136.5 -118t-183 -89t-125.5 -31z" />
    <glyph glyph-name="D" unicode="D" horiz-adv-x="1685" 
d="M72 -4q-9 -1 -15.5 20t-6 43.5t8.5 24.5q100 27 132 45q73 50 75 156v895q0 44 -13 76t-39.5 52t-52 31t-63.5 21q-7 2 -7.5 22t4.5 38.5t11 17.5q109 -13 283 -13q102 0 245.5 6.5t184.5 6.5q175 0 320 -52.5t241.5 -145t149.5 -218.5t53 -272q0 -145 -51.5 -279
t-145.5 -240.5t-242 -170.5t-327 -64q-39 0 -171 6t-228 6q-236 0 -346 -12zM862 117q221 0 320.5 120t99.5 367q0 206 -64.5 367t-187.5 253.5t-287 92.5q-93 0 -134.5 -32.5t-41.5 -104.5v-895q0 -81 74.5 -124.5t220.5 -43.5z" />
    <glyph glyph-name="E" unicode="E" horiz-adv-x="1396" 
d="M72 -4q-9 -1 -15.5 20t-6 43.5t8.5 24.5q100 27 132 45q73 50 75 156v895q0 44 -13 76t-40 51.5t-51.5 30.5t-63.5 22q-7 2 -7.5 22t4.5 38.5t11 17.5q51 -8 139.5 -11.5t157 -3.5t157.5 1t97 1q108 0 277.5 6t216.5 7q36 0 44.5 -22.5t-1.5 -59.5l-47 -197
q-5 -23 -33.5 -23t-34.5 23q-19 57 -49 87t-99 46.5t-192 16.5q-95 0 -133.5 -30.5t-38.5 -102.5v-324q0 -37 17 -50.5t51 -13.5h53q116 0 216.5 20t152.5 62q18 16 40.5 8.5t8.5 -38.5l-111 -258q-13 -30 -35 -30t-40 26q-32 48 -98.5 72t-147.5 24h-39q-34 0 -51 -13.5
t-17 -50.5v-325q0 -89 42.5 -126.5t158.5 -37.5q95 0 180 24t141.5 61.5t91.5 70.5t56 63q9 13 43.5 2t34.5 -33q0 -35 -17.5 -87t-46.5 -103.5t-73.5 -87.5t-92.5 -35q-278 12 -389 12q-27 0 -144 0.5t-176 0t-149.5 -3.5t-154.5 -9z" />
    <glyph glyph-name="F" unicode="F" horiz-adv-x="1292" 
d="M72 -4q-9 -1 -15.5 20t-6 43.5t8.5 24.5q100 27 132 45q73 50 75 156v895q0 44 -13 76t-40 51.5t-51.5 30.5t-63.5 22q-7 2 -7.5 22t4.5 38.5t11 17.5q51 -8 139.5 -11.5t157 -3.5t157.5 1t97 1q108 0 277.5 6t216.5 7q36 0 44.5 -22.5t-1.5 -59.5l-47 -197
q-5 -23 -33.5 -23t-34.5 23q-19 57 -49 87t-99 46.5t-192 16.5q-95 0 -133.5 -30.5t-38.5 -102.5v-345q0 -37 17 -50t51 -13h53q116 0 216.5 20t152.5 62q18 16 40.5 8t8.5 -39l-111 -258q-13 -30 -35 -30t-40 26q-32 48 -98.5 72t-147.5 24h-39q-34 0 -51 -13t-17 -50v-305
q0 -51 12.5 -83t43 -51.5t65.5 -30.5t97 -26q29 -6 44 -10q8 -2 8.5 -24.5t-5.5 -43.5t-15 -20q-252 12 -399 12q-233 0 -346 -12z" />
    <glyph glyph-name="G" unicode="G" horiz-adv-x="1630" 
d="M987 -33q-146 0 -277 29.5t-240.5 90t-188.5 147t-123.5 205t-44.5 259.5q0 117 31 226.5t98.5 208.5t164.5 172.5t238.5 117t310.5 43.5q126 0 231 -22t159 -57.5t40 -73.5l-36 -94q-21 -57 -43 -76.5t-46 -12.5t-65.5 30t-89.5 49.5t-131 46.5t-178 20
q-228 0 -326 -113.5t-98 -337.5q0 -155 46.5 -289.5t123.5 -225t178 -142t209 -51.5q104 0 139 42.5t35 127.5v35q0 111 -56.5 161t-181.5 68q-18 3 -4 36q15 37 43 48l13 2h567q28 0 38.5 -20.5t5 -41.5t-17.5 -24q-71 -19 -105 -60.5t-34 -132.5v-69q0 -83 45 -146
q-88 -52 -241 -114t-189 -62z" />
    <glyph glyph-name="H" unicode="H" horiz-adv-x="1738" 
d="M1649 80q7 -4 7.5 -21.5t-6 -38t-14.5 -20.5h-610q-8 0 -14 19.5t-6 39.5t8 21q85 11 125.5 53t40.5 131v328q-7 23 -29.5 29t-60.5 6h-441q-20 0 -30.5 -0.5t-25.5 -3.5t-23.5 -11t-12.5 -20v-328q0 -51 13.5 -86.5t39 -55t52 -28.5t63.5 -14q8 -1 8 -21t-6 -39.5
t-14 -19.5h-611q-8 0 -14 19.5t-6 39.5t8 21q86 11 126 52.5t40 131.5v905q0 90 -40 132t-126 53q-8 1 -8 21t6 39.5t14 19.5h611q8 0 14 -19.5t6 -39.5t-8 -21q-37 -5 -63.5 -14.5t-52 -28.5t-39 -55t-13.5 -87v-352q4 -12 12.5 -20t23.5 -11t25.5 -3.5t30.5 -0.5h441
q19 0 29 0.5t25 3.5t23.5 11t12.5 20v352q0 89 -40.5 131.5t-125.5 53.5q-8 1 -8 21t6 39.5t14 19.5h610q8 0 14.5 -20.5t6 -38t-7.5 -21.5q-37 -5 -63.5 -14.5t-52 -28.5t-39 -55t-13.5 -87v-905q0 -51 13.5 -86.5t39 -55t52 -28.5t63.5 -14z" />
    <glyph glyph-name="I" unicode="I" horiz-adv-x="815" 
d="M102 0q-8 0 -14 19.5t-6 39.5t8 21q86 11 126 52.5t40 131.5v905q0 90 -40 132t-126 53q-8 1 -8 21t6 39.5t14 19.5h611q8 0 14 -19.5t6 -39.5t-8 -21q-37 -5 -63.5 -14.5t-52 -28.5t-39 -55t-13.5 -87v-905q0 -51 13.5 -86.5t39 -55t52 -28.5t63.5 -14q8 -1 8 -21
t-6 -39.5t-14 -19.5h-611z" />
    <glyph glyph-name="J" unicode="J" horiz-adv-x="817" 
d="M106 -440q-20 0 -33 21t-12 39t7 22q81 8 135.5 92.5t54.5 253.5v1192q0 51 -13 86.5t-38 55t-51 28.5t-64 14q-8 1 -8 18.5t6 34.5t14 17h611q8 0 14 -17t6 -34.5t-8 -18.5q-37 -5 -63.5 -14t-52 -28.5t-39 -55t-13.5 -86.5v-1192q0 -74 -49 -153.5t-119 -138.5
t-148.5 -97.5t-136.5 -38.5z" />
    <glyph glyph-name="K" unicode="K" horiz-adv-x="1732" 
d="M725 80q8 -1 8 -21t-6 -39.5t-14 -19.5h-611q-8 0 -14 19.5t-6 39.5t8 21q86 11 126 52.5t40 131.5v905q0 90 -40 132t-126 53q-8 1 -8 21t6 39.5t14 19.5h611q8 0 14 -19.5t6 -39.5t-8 -21q-37 -5 -63.5 -14.5t-52 -28.5t-39 -55t-13.5 -87v-905q0 -51 13.5 -86.5
t39 -55t52 -28.5t63.5 -14zM1630 57q11 0 9.5 -30.5t-9.5 -32.5q-60 -17 -120.5 -22t-125.5 3t-127 39t-110 84l-567 625l456 477q65 69 59 104t-87 50q-16 3 -13.5 41.5t15.5 38.5h503q8 0 14 -19.5t5 -39.5t-10 -21q-190 -30 -324 -176l-334 -357l514 -567
q180 -197 252 -197z" />
    <glyph glyph-name="L" unicode="L" horiz-adv-x="1376" 
d="M72 -4q-9 -1 -15.5 20t-6 43.5t8.5 24.5q100 27 132 45q73 50 75 156v884q0 51 -13.5 87t-39 55t-52 28.5t-63.5 14.5q-7 4 -7.5 21.5t5.5 38t13 20.5h614q9 0 13.5 -39t-5.5 -41q-35 -4 -61 -13.5t-51 -29t-38.5 -55.5t-13.5 -87v-884q0 -89 42.5 -126.5t158.5 -37.5
q95 0 180 24t141.5 61.5t91.5 70.5t56 63q9 13 43.5 2t34.5 -33q0 -35 -17.5 -87t-46.5 -103.5t-73.5 -87.5t-92.5 -35q-278 12 -389 12q-27 0 -144 0.5t-176 0t-149.5 -3.5t-154.5 -9z" />
    <glyph glyph-name="M" unicode="M" horiz-adv-x="2033" 
d="M1944 80q11 -2 6 -41t-15 -39h-596q-10 0 -15 39t3 41q79 14 117.5 57.5t34.5 126.5l-39 604l-289 -592q-72 -147 -88 -221q-3 -18 -33 -27.5t-65 -9.5q-56 0 -74 37l-453 852l-26 -643q-2 -54 12.5 -91.5t42 -56t48.5 -25.5t48 -11q11 -2 6.5 -41t-14.5 -39h-453
q-8 0 -14 19.5t-6 39.5t8 21q76 9 117.5 47t48.5 137l72 1161q2 31 52.5 32t70.5 -32l589 -1079l541 1079q11 21 42 29t57.5 0t27.5 -27l72 -1163q7 -98 49.5 -136.5t114.5 -47.5z" />
    <glyph glyph-name="N" unicode="N" horiz-adv-x="1748" 
d="M1454 -20q-49 0 -84 38l-960 953v-697q0 -24 3.5 -43.5t8 -34.5t16 -28.5t18.5 -22t26.5 -18t29 -14t36 -12t38 -10.5t43.5 -11q12 -3 7 -41.5t-20 -38.5h-528q-11 0 -16.5 38t8.5 42q12 6 36 15t38.5 15t33.5 19.5t29.5 30.5t18.5 46.5t8 67.5v766q0 41 -3 75.5t-6.5 56
t-12.5 47t-13 35.5t-16 34t-15 31q-11 16 -23.5 31.5t-18 22.5t-5.5 9q0 19 11.5 35.5t37.5 16.5h164q30 0 47 -19l938 -940v688q0 33 -5.5 59t-21 44.5t-28 30t-41 22t-45 15.5t-54.5 14l-24 6q-12 3 -7.5 41.5t19.5 38.5h529q11 0 14.5 -38.5t-6.5 -41.5q-6 -2 -25.5 -9
t-25.5 -9t-22.5 -9t-22.5 -11.5t-18.5 -13.5t-17.5 -17.5t-13 -21.5t-11 -27t-5.5 -32.5t-2.5 -40.5v-770q0 -269 25 -377q4 -20 -12.5 -28t-53.5 -8z" />
    <glyph glyph-name="O" unicode="O" horiz-adv-x="1720" 
d="M858 -33q-210 0 -380 95t-267.5 264.5t-97.5 380.5q0 155 54.5 294t151 242t237.5 163t306 60q212 0 382 -94t267 -262.5t97 -380.5q0 -156 -54 -295.5t-150.5 -242.5t-238 -163.5t-307.5 -60.5zM946 129q52 0 101.5 14.5t98.5 50t85 88t58 135t22 185.5q0 145 -46 277
t-120.5 224.5t-172 147t-198.5 54.5q-52 0 -101.5 -14.5t-97.5 -49.5t-83.5 -87.5t-57.5 -135t-22 -184.5q0 -146 46 -278.5t120.5 -225t171 -147t196.5 -54.5z" />
    <glyph glyph-name="P" unicode="P" horiz-adv-x="1458" 
d="M1356 999q0 -175 -105 -291t-285 -157t-409 -8v-279q0 -51 17 -86t52 -54t68.5 -28t87.5 -16q7 -1 7 -21t-5.5 -39.5t-13.5 -19.5h-668q-8 0 -14 19.5t-6 39.5t8 21q86 11 126 52.5t40 131.5v893q0 93 -41.5 135.5t-124.5 65.5q-8 2 -8.5 22.5t6 39.5t14.5 18
q101 -13 240 -13q96 0 232 6.5t178 6.5q131 0 237.5 -24.5t190.5 -75t130 -137t46 -202.5zM688 1317q-78 0 -104.5 -33.5t-26.5 -126.5v-504q241 -31 358 42t117 255q0 159 -91.5 263t-252.5 104z" />
    <glyph glyph-name="Q" unicode="Q" horiz-adv-x="1722" 
d="M1946 -356q26 12 42.5 -15.5t6.5 -40.5q-35 -48 -134 -67t-219 2t-202 80l-324 235q-69 51 -148 90t-114 39q-156 1 -293.5 57t-235.5 153.5t-155 235t-57 294.5q0 155 54.5 294t151 242t237.5 163t306 60q212 0 382 -94t267 -262.5t97 -380.5q0 -225 -107.5 -407.5
t-296.5 -276.5q24 -2 43 -9t28 -12.5t30 -21.5l335 -248q117 -85 184 -110t122 0zM412 834q0 -146 46 -278.5t120.5 -225t171 -147t196.5 -54.5q52 0 101.5 14.5t98.5 50t85 88t58 135t22 185.5q0 145 -46 277t-120.5 224.5t-172 147t-198.5 54.5q-52 0 -101.5 -14.5
t-97.5 -49.5t-83.5 -87.5t-57.5 -135t-22 -184.5z" />
    <glyph glyph-name="R" unicode="R" horiz-adv-x="1701" 
d="M1663 57q11 0 9.5 -30.5t-9.5 -32.5q-314 -85 -481 129l-310 397q-64 84 -131.5 108.5t-183.5 26.5v-391q0 -51 17 -86t52 -54t68.5 -28t87.5 -16q7 -1 7 -21t-5.5 -39.5t-13.5 -19.5h-668q-8 0 -14 19.5t-6 39.5t8 21q86 11 126 52.5t40 131.5v893q0 93 -41.5 135.5
t-124.5 65.5q-8 2 -8.5 22.5t6 39.5t14.5 18q101 -13 240 -13q96 0 245 6.5t191 6.5q254 0 393.5 -98.5t139.5 -280.5q0 -82 -30.5 -149t-83.5 -110t-120 -67t-143 -28v-11q72 0 132 -35t130 -122l287 -365q50 -61 98.5 -88t81.5 -27zM608 760q155 0 236.5 21t117 71.5
t35.5 146.5q0 156 -81.5 237t-215.5 81q-84 0 -113.5 -36t-29.5 -124v-397h51z" />
    <glyph glyph-name="S" unicode="S" horiz-adv-x="1165" 
d="M535 -33q-87 0 -185.5 20t-168 59.5t-56.5 84.5l22 84q13 50 28 70t36 15t44.5 -23.5t60.5 -46.5t78.5 -53.5t103.5 -43.5t129 -18q219 0 219 182q0 57 -37.5 96t-167.5 123l-147 102q-84 55 -130.5 88.5t-94.5 75t-71 76t-37 78t-14 94.5q0 96 45.5 179.5t118.5 138.5
t163.5 86.5t182.5 31.5q77 0 160 -19.5t135.5 -53t40.5 -66.5l-26 -82q-18 -54 -36.5 -72t-37 -8.5t-49 33t-64.5 51t-91.5 48t-121.5 20.5q-94 0 -145 -43.5t-51 -120.5q0 -68 41 -113.5t151 -115.5l174 -117q93 -60 149.5 -103.5t99 -91t60 -95.5t17.5 -107
q0 -96 -44 -180t-117 -141t-169 -89.5t-198 -32.5z" />
    <glyph glyph-name="T" unicode="T" horiz-adv-x="1536" 
d="M377 0q-8 0 -14.5 19t-6 38.5t8.5 20.5q122 17 178.5 49t56.5 109v983q0 40 -15.5 54.5t-52.5 14.5h-38q-128 0 -223 -38t-119 -95q-12 -31 -51 -32q-33 -1 -40 19v13q35 116 50 258q3 31 15.5 36t47.5 1q99 -10 200 -13t388 -3q476 0 651 16q19 1 34.5 2t22.5 -8.5
t0 -30.5q-45 -146 -65 -258q-5 -27 -37.5 -28.5t-40.5 28.5q-19 56 -94 94.5t-193 38.5h-49q-40 0 -61 -15t-21 -54v-983q0 -33 11.5 -57.5t30 -40.5t50.5 -28t65 -18.5t81 -13.5q7 -4 7.5 -21t-6.5 -37t-15 -20h-756z" />
    <glyph glyph-name="U" unicode="U" horiz-adv-x="1689" 
d="M870 -33q-92 0 -179.5 19t-170 63t-143.5 109t-98 163.5t-37 219.5v628q0 90 -40 133t-122 52q-8 1 -8 21t6 39.5t14 19.5h610q8 0 14.5 -20.5t6 -38t-7.5 -21.5q-76 -9 -121 -48.5t-45 -136.5v-639q0 -200 99.5 -299.5t256.5 -99.5q79 0 145.5 23.5t118.5 70.5t81.5 125
t29.5 180v639q0 90 -45.5 131.5t-128.5 53.5q-7 1 -7 21t5.5 39.5t13.5 19.5h484q10 0 14.5 -39t-6.5 -41q-33 -4 -58.5 -13.5t-50 -29t-38 -55.5t-13.5 -87v-624q0 -186 -76 -318t-205.5 -196t-298.5 -64z" />
    <glyph glyph-name="V" unicode="V" horiz-adv-x="1658" 
d="M1579 1434q16 0 19 -36.5t-15 -39.5q-67 -10 -112 -52.5t-95 -158.5l-348 -813q-55 -128 -78.5 -202t-23.5 -132q0 -9 -71 -25t-75 -6l-497 1176q-35 82 -68 127.5t-62.5 62t-74.5 23.5q-20 3 -17 39.5t23 36.5h588q20 0 22 -37t-16 -39q-164 -13 -82 -211l309 -744
l307 744q26 60 28 102.5t-17.5 64.5t-46.5 31.5t-66 12.5q-12 1 -15.5 20t3 37.5t20.5 18.5h461z" />
    <glyph glyph-name="W" unicode="W" horiz-adv-x="2385" 
d="M2302 1434q20 0 23 -38t-17 -42q-34 -4 -59 -13.5t-52 -31t-51.5 -62t-46.5 -100.5l-307 -813q-45 -117 -59.5 -157t-27.5 -89.5t-13 -87.5q0 -9 -73 -25t-77 -6l-319 805l-207 -440q-63 -135 -83 -201t-20 -133q0 -9 -73.5 -25t-77.5 -6l-477 1176q-47 117 -93.5 159
t-113.5 52q-20 3 -17 40.5t23 37.5h586q20 0 22 -37t-16 -39q-84 -11 -104.5 -60.5t18.5 -150.5l303 -768l192 424q39 84 42 141t-31 150q-56 143 -99 196.5t-90 65.5q-16 4 -14.5 41t20.5 37h478q28 0 28 -19q0 -8 -15 -31.5t-28 -51.5t-16.5 -77t20.5 -108l283 -731
l270 731q14 37 20 66t6 49.5t-8.5 36t-17 24t-27 16t-31.5 10.5t-36 7q-18 3 -16 40.5t22 37.5h457z" />
    <glyph glyph-name="X" unicode="X" horiz-adv-x="1658" 
d="M1591 80q20 -2 16.5 -41t-18.5 -39h-641q-12 0 -19 19.5t-2.5 39.5t19.5 21q37 2 57.5 12t26.5 26t-2.5 42.5t-24.5 55.5t-45 71l-188 274l-219 -274q-154 -191 27 -207q16 -2 14 -41t-21 -39h-487q-13 0 -19.5 19.5t-3 39.5t16.5 21q64 5 147.5 60t155.5 147l311 391
l-321 467q-72 104 -147 155t-142 54q-14 2 -18 22t3 39t21 19h639q17 0 20 -38.5t-14 -41.5q-48 -4 -70.5 -18t-19.5 -42t20.5 -61t53.5 -86l160 -236l188 236q77 98 72 150t-88 57q-15 2 -19 22t3 39t18 19h487q18 0 20 -38.5t-18 -41.5q-61 -3 -146 -59t-157 -148
l-281 -352l342 -506q68 -101 147 -152.5t146 -56.5z" />
    <glyph glyph-name="Y" unicode="Y" horiz-adv-x="1585" 
d="M1501 1434q17 0 20 -38t-14 -42q-60 -8 -117 -55.5t-124 -151.5l-316 -492v-391q0 -52 13.5 -86.5t43.5 -53.5t62.5 -28t85.5 -16q7 -1 7 -21t-5.5 -39.5t-13.5 -19.5h-688q-8 0 -14 20.5t-5.5 38t6.5 21.5q113 16 160 52.5t47 131.5v377l-336 504q-72 107 -122 153.5
t-113 55.5q-20 4 -17 42t23 38h592q20 0 22 -38t-16 -42q-70 -10 -82 -60t47 -147l238 -356l231 356q39 60 39 105.5t-30 70t-83 31.5q-15 3 -19 23t3 38.5t18 18.5h457z" />
    <glyph glyph-name="Z" unicode="Z" horiz-adv-x="1353" 
d="M1083 -12q-31 9 -72.5 15t-102 8t-102 2t-124.5 -0.5t-119 -0.5q-280 0 -483 -18q-13 -1 -24 23.5t-5 37.5l809 1223l-317 4q-87 1 -150 -7t-103.5 -26.5t-62.5 -35t-45 -42.5q-18 -20 -49 -11.5t-22 36.5l73 223q8 25 38 31t48 -2q23 -6 51 -10.5t67.5 -7t66.5 -4.5
t80.5 -2.5t74.5 -0.5h82h72q254 0 469 19q8 1 17 -11.5t12 -27t0 -23.5l-807 -1222l356 -4q113 -2 190 15.5t107.5 38.5t62.5 56q18 20 48.5 12t23.5 -36l-74 -224q-8 -25 -38 -30.5t-48 2.5z" />
    <glyph glyph-name="bracketleft" unicode="[" horiz-adv-x="950" 
d="M901 -193q19 -1 19 -47.5t-19 -46.5l-751 21q-23 1 -25.5 14t7.5 52q10 43 16 75t13 108t7 160v1188q0 84 -7.5 160.5t-13 106.5t-15.5 76q-10 40 -7.5 53t25.5 14l751 20q19 0 19 -46.5t-19 -47.5q-35 -3 -88.5 -11t-139 -22t-136.5 -22q-60 -9 -83.5 -40.5
t-23.5 -105.5v-1458q0 -74 23 -105t84 -40q54 -8 137 -22.5t137.5 -22.5t89.5 -11z" />
    <glyph glyph-name="backslash" unicode="\" horiz-adv-x="890" 
d="M170 1624l655 -1993q3 -11 -9 -23t-31.5 -19.5t-40.5 -12t-38 -1t-20 14.5l-653 1993q-3 11 8.5 22t31 19t40.5 12.5t37.5 1.5t19.5 -14z" />
    <glyph glyph-name="bracketright" unicode="]" horiz-adv-x="960" 
d="M49 -193q35 3 89.5 11t138.5 22.5t137 22.5q60 9 83 40t23 105v1458q0 75 -23 106t-83 40q-50 8 -136.5 22t-140 22t-88.5 11q-19 1 -19 47.5t19 46.5l752 -20q23 -1 25.5 -14t-7.5 -52q-10 -43 -16 -75t-13.5 -108t-7.5 -161v-1188q0 -85 7.5 -162t13 -105.5t16.5 -76.5
q10 -39 7.5 -51.5t-25.5 -13.5l-752 -21q-19 0 -19 46.5t19 47.5z" />
    <glyph glyph-name="asciicircum" unicode="^" horiz-adv-x="958" 
d="M852 1022q11 -16 -6.5 -39t-41.5 -32t-40 1l-285 258l-284 -258q-16 -10 -40 -1t-42 32t-7 39l308 430q8 12 65 12.5t66 -12.5z" />
    <glyph glyph-name="underscore" unicode="_" horiz-adv-x="1351" 
d="M160 -141q-17 0 -24.5 27t0 54t24.5 27h1032q17 0 24.5 -27t0 -54t-24.5 -27h-1032z" />
    <glyph glyph-name="grave" unicode="`" horiz-adv-x="442" 
d="M397 1204q15 -22 -26.5 -61.5t-61.5 -24.5l-262 197q-23 17 13 66t89 81.5t70 7.5z" />
    <glyph glyph-name="a" unicode="a" horiz-adv-x="1155" 
d="M375 -33q-120 0 -201.5 65.5t-81.5 184.5q0 90 51.5 136.5t155.5 82.5l291 94q58 20 69 30q15 14 15 52v58q0 86 -34.5 113.5t-107.5 27.5q-64 0 -173.5 -18.5t-131.5 -20.5q-34 -3 -37 25l-4 43q-3 29 83 65t201.5 60t195.5 24q53 0 95.5 -12.5t71 -31.5t49 -49
t31.5 -58t17.5 -65t8 -64.5t1.5 -61.5v-424q0 -46 14.5 -72.5t35.5 -32t45.5 -7t43.5 2.5t29 -3q16 -8 16 -35q0 -31 -108 -70t-178 -39q-48 0 -88.5 31t-79.5 111q-143 -93 -191.5 -117.5t-103.5 -24.5zM500 139q65 0 121.5 41.5t56.5 110.5v158q-3 -2 -6 -6t-11.5 -8
t-31.5 -11l-189 -62q-25 -8 -44 -38.5t-19 -71.5q0 -50 34.5 -81.5t88.5 -31.5z" />
    <glyph glyph-name="b" unicode="b" horiz-adv-x="1277" 
d="M774 989q82 0 155 -27.5t131 -80.5t92 -138.5t34 -193.5q0 -84 -21 -165.5t-67.5 -157.5t-113.5 -133t-166 -91.5t-218 -34.5q-236 0 -428 115q12 91 12 235v797q0 114 -14.5 168t-49.5 76t-110 28q-8 1 -9.5 16.5t4 31t13.5 16.5l439 90q12 4 23 -6.5t7 -30.5
q-38 -179 -38 -389v-139q0 -52 9 -67.5t35 -5t58.5 30t94.5 38t128 18.5zM688 104q122 0 174.5 84t52.5 242q0 192 -73 301t-189 109q-83 0 -143.5 -53.5t-60.5 -108.5v-381q0 -86 69 -139.5t170 -53.5z" />
    <glyph glyph-name="c" unicode="c" horiz-adv-x="1032" 
d="M662 -33q-77 0 -154 15.5t-153 52t-133.5 90.5t-93.5 137.5t-36 186.5q0 77 19.5 151t63.5 145t108.5 125t162 86.5t216.5 32.5q48 0 96.5 -7t89 -20t62.5 -33t16 -44l-23 -82q-14 -56 -35.5 -71.5t-53.5 0t-67 40t-89 47.5t-107 23q-95 0 -143 -76t-48 -191
q0 -97 35 -182t88 -139t112 -84.5t110 -30.5q54 0 194 31q8 2 17.5 -14t12.5 -31t-1 -19q-25 -13 -87.5 -50.5t-111 -63t-67.5 -25.5z" />
    <glyph glyph-name="d" unicode="d" horiz-adv-x="1290" 
d="M1243 111q17 -9 17 -35q0 -31 -107.5 -70t-181.5 -39q-21 0 -42 21t-35.5 45.5t-36.5 39.5t-46 5q-189 -88 -257 -104q-27 -7 -46 -7q-177 0 -296.5 130.5t-119.5 344.5q0 147 59 270.5t174 200t265 76.5q43 0 83 -7.5t61 -15t39 -13t25.5 -1.5t11 19.5t3.5 50.5v164
q0 59 -6.5 90.5t-31.5 56t-67.5 35t-121.5 18.5q-11 1 -8.5 32t14.5 32l491 90q13 4 25 -6.5t8 -30.5q-41 -193 -41 -389v-891q0 -47 14.5 -74t35.5 -32t45.5 -6.5t43.5 3t29 -2.5zM813 229v469q-26 65 -84 111.5t-149 46.5q-224 0 -224 -319q0 -189 81 -304.5t196 -115.5
q42 0 111 39.5t69 72.5z" />
    <glyph glyph-name="e" unicode="e" horiz-adv-x="1069" 
d="M938 166q8 2 17 -13.5t11.5 -30t-1.5 -18.5q-29 -12 -93 -47.5t-116.5 -62.5t-71.5 -27q-86 0 -166 14t-159 48.5t-137 87.5t-94 137t-36 190q0 78 19 153.5t61 147t101.5 125.5t148 86.5t194.5 32.5q88 0 155 -24.5t102.5 -59.5t58 -80t29 -79t6.5 -64q0 -42 -13 -101.5
t-32 -97.5l-564 -16q16 -83 56 -147.5t94.5 -103t116.5 -58t127 -19.5q51 0 186 27zM541 842q-189 0 -193 -254l383 12q15 99 -38.5 170.5t-151.5 71.5z" />
    <glyph glyph-name="f" unicode="f" horiz-adv-x="878" 
d="M104 0q-8 0 -14.5 18.5t-6.5 35t7 20.5q57 7 97 39t40 98v491q0 60 -33 95t-112 47q-10 2 -10 55t10 53h90q55 0 55 45v80q0 129 78.5 245t196 182.5t233.5 66.5q37 0 71.5 -32.5t31.5 -63.5q-29 -187 -70 -187q-7 0 -26 14.5t-55 29t-85 14.5q-42 0 -63.5 -12t-34 -52
t-12.5 -117v-145q0 -68 81 -68h209q25 0 28 -47.5t-17 -91.5t-52 -37l-53 10q-65 14 -105 15t-59.5 -12.5t-25.5 -33t-6 -53.5v-450q0 -41 9.5 -70t24.5 -47t44.5 -30t57 -18t74.5 -13q10 -2 4.5 -38t-14.5 -36h-588z" />
    <glyph glyph-name="g" unicode="g" horiz-adv-x="1232" 
d="M1073 969q57 0 80 -52q23 -54 -9 -109q-45 -74 -155 -75h-41q8 -36 8 -84q0 -66 -22.5 -126.5t-69.5 -112t-129.5 -82.5t-191.5 -31q-82 0 -133.5 -31t-51.5 -73q0 -30 28.5 -47t82.5 -17h383q244 0 244 -182q0 -107 -83 -203t-226 -154.5t-308 -58.5q-83 0 -147.5 17
t-102 43t-61.5 60.5t-32.5 65t-8.5 60.5q0 9 10.5 23t30 32.5t39.5 35t48 40t46 39.5q-62 37 -120 100t-58 94q0 28 12 44t45 38l170 105q-108 41 -162.5 124t-54.5 185q0 66 23 126.5t70 112t130 82.5t193 31q167 0 276 -74q43 -22 70.5 -25t44 9.5t30.5 27.5t40 28.5
t63 13.5zM586 412q72 0 104.5 50t32.5 130q0 111 -63 196.5t-148 85.5q-70 0 -105.5 -52.5t-35.5 -135.5q0 -109 63 -191.5t152 -82.5zM713 -82h-336h-8q-17 -91 -17 -121q0 -58 62.5 -103.5t183.5 -45.5q160 0 227 80q47 55 23 114q-22 58 -96 73q-19 3 -39 3z" />
    <glyph glyph-name="h" unicode="h" horiz-adv-x="1320" 
d="M72 0q-8 0 -15 18t-7 34t7 20q140 18 140 155v887q0 112 -13.5 167.5t-42.5 77t-90 27.5q-13 2 -8.5 32.5t16.5 35.5l410 86q16 3 26.5 -8.5t4.5 -28.5q-39 -150 -39 -551q0 -37 17 -52t42 -7q26 9 96.5 38t124 43.5t107.5 14.5q59 0 106 -17t76 -44.5t48 -65t26.5 -74.5
t7.5 -77v-484q0 -136 139 -155q7 -4 7 -20t-6 -34t-13 -18h-502q-9 0 -14 35t4 37q63 9 92 44.5t29 110.5v361q0 126 -44 171.5t-155 45.5q-71 0 -129.5 -19.5t-58.5 -56.5v-502q0 -137 141 -155q6 -4 6 -20t-6 -34t-14 -18h-516z" />
    <glyph glyph-name="i" unicode="i" horiz-adv-x="679" 
d="M324 1151q-45 0 -111 62.5t-66 111.5q0 48 66.5 111t110.5 63t110 -63t66 -111q0 -49 -65.5 -111.5t-110.5 -62.5zM84 0q-8 0 -14.5 18t-6.5 34t7 20q141 18 141 155v428q0 94 -28 127.5t-107 42.5q-13 2 -8.5 33.5t16.5 34.5l399 92q16 2 22.5 -7.5t2.5 -29.5
q-33 -156 -33 -321v-400q0 -137 137 -155q6 -4 6 -20t-6 -34t-14 -18h-514z" />
    <glyph glyph-name="j" unicode="j" horiz-adv-x="659" 
d="M319 1151q-45 0 -110.5 62.5t-65.5 111.5q0 48 66 111t110 63q46 0 111.5 -63t65.5 -111q0 -49 -65.5 -111.5t-111.5 -62.5zM96 -440q-8 0 -18.5 18.5t-14 34.5t2.5 20q63 8 102 96t39 259v667q0 91 -29 127.5t-104 42.5q-13 2 -8.5 33.5t16.5 34.5l397 92
q16 2 22.5 -7.5t2.5 -29.5q-33 -156 -33 -321v-639q0 -74 -38.5 -153t-95 -138.5t-122.5 -98t-119 -38.5z" />
    <glyph glyph-name="k" unicode="k" horiz-adv-x="1384" 
d="M84 0q-8 0 -14.5 18t-6.5 34t7 20q137 18 137 155v877q0 116 -14 173t-45 80t-97 29q-8 1 -9.5 16.5t4 31t13.5 16.5l420 90q14 3 25.5 -7.5t5.5 -29.5q-39 -215 -39 -481v-795q0 -137 135 -155q7 -4 7 -20t-6.5 -34t-14.5 -18h-508zM1087 -35q-48 6 -123.5 64t-153 141
t-145 165.5t-114.5 149.5q-15 23 -15.5 38t21.5 36q140 112 180 155q91 97 37 155l-8 8q-27 22 -22.5 48.5t32.5 26.5h455q18 0 26 -19t0 -39.5t-26 -23.5q-115 -16 -206 -59.5t-151 -99.5q-68 -65 -82 -96.5t11 -69.5q42 -59 104.5 -130.5t132 -140t139 -116.5t113.5 -52
q12 -1 19 -3t14.5 -10t7.5 -21q0 -5 -1 -9t-4 -7t-6 -5t-8.5 -4.5t-9.5 -4t-11.5 -4.5l-12.5 -5z" />
    <glyph glyph-name="l" unicode="l" horiz-adv-x="673" 
d="M84 0q-8 0 -14.5 18t-6.5 34t7 20q137 18 137 155v877q0 116 -14 173t-45 80t-97 29q-8 1 -9.5 16.5t4 31t13.5 16.5l420 90q14 3 25.5 -7.5t5.5 -29.5q-39 -215 -39 -481v-795q0 -137 135 -155q7 -4 7 -20t-6.5 -34t-14.5 -18h-508z" />
    <glyph glyph-name="m" unicode="m" horiz-adv-x="1937" 
d="M1868 72q7 -4 7 -20t-6.5 -34t-13.5 -18h-481q-7 0 -12.5 18t-5.5 34t4 20q59 12 81.5 45.5t22.5 109.5v361q0 121 -47.5 169t-136.5 48q-57 0 -118.5 -21t-61.5 -55v-502q0 -142 123 -155q7 -4 7 -20t-6.5 -34t-13.5 -18h-465q-9 0 -14 35t4 37q57 9 80 43.5t23 111.5
v361q0 123 -44.5 170t-140.5 47q-61 0 -120.5 -20t-59.5 -56v-502q0 -71 28 -108.5t89 -46.5q11 -2 6.5 -37t-16.5 -35h-496q-8 0 -14.5 18t-6.5 34t7 20q139 18 139 155v471q0 69 -33 96t-104 35q-12 2 -8 35t16 35l371 92q19 3 25.5 -7t6.5 -30q0 -39 12 -54.5t37 -6.5
q10 4 77 35.5t117.5 46t104.5 14.5q152 0 224 -119q229 119 391 119q71 0 127 -25.5t89 -67t50 -89t17 -96.5v-484q0 -136 139 -155z" />
    <glyph glyph-name="n" unicode="n" horiz-adv-x="1325" 
d="M84 0q-8 0 -14.5 18t-6.5 34t7 20q139 18 139 155v471q0 69 -33 96t-104 35q-12 2 -8 35t16 35l369 92q18 3 26 -7.5t8 -29.5q0 -38 12 -53t37 -8q29 10 95 38t118.5 43t106.5 15q59 0 106 -17t76 -44.5t48 -65t26.5 -74.5t7.5 -77v-484q0 -136 139 -155q7 -4 7 -20
t-6 -34t-13 -18h-489q-9 0 -14.5 35t3.5 37q60 9 84.5 44t24.5 111v361q0 126 -44 171.5t-155 45.5q-68 0 -124 -19.5t-56 -56.5v-502q0 -71 30.5 -108.5t98.5 -46.5q6 -4 6 -20t-6 -34t-14 -18h-504z" />
    <glyph glyph-name="o" unicode="o" horiz-adv-x="1206" 
d="M598 -33q-217 0 -361.5 139t-144.5 361q0 224 146 373t370 149q217 0 361.5 -139t144.5 -363q0 -222 -145 -371t-371 -149zM662 109q37 0 68 12.5t60 40.5t45.5 83.5t16.5 133.5q0 202 -86.5 335.5t-222.5 133.5q-36 0 -67 -12t-60 -40.5t-45.5 -83t-16.5 -130.5
q0 -204 86.5 -338.5t221.5 -134.5z" />
    <glyph glyph-name="p" unicode="p" horiz-adv-x="1290" 
d="M63 -424q-8 0 -14.5 18t-6.5 34t7 20q38 5 61 11.5t45 20t32 38.5t10 63v917q0 69 -33.5 96t-104.5 35q-8 1 -8.5 18t4.5 34t13 18l370 92q18 3 26.5 -7.5t8.5 -29.5q0 -37 17 -52t38 -7l20 13q20 12 44 24t57.5 26t76 22.5t85.5 8.5q74 0 142 -27.5t123.5 -80.5
t88.5 -139t33 -193q0 -83 -21 -165.5t-65.5 -157.5t-106.5 -133t-150 -92t-191 -34q-12 0 -50 6.5t-86 15t-67 11.5v-219q0 -50 27 -76.5t59 -34t120 -18.5q9 -2 15.5 -2.5t13.5 -1.5q6 -4 6 -20t-6 -34t-14 -18h-619zM709 104q117 0 168 83.5t51 240.5q0 191 -72 297
t-184 106q-82 0 -146.5 -49.5t-64.5 -119.5v-386q0 -77 76.5 -124.5t171.5 -47.5z" />
    <glyph glyph-name="q" unicode="q" horiz-adv-x="1263" 
d="M1217 -352q6 -4 6 -20t-6.5 -34t-14.5 -18h-610q-9 0 -14.5 35t4.5 37q15 2 42 6q48 7 69.5 10.5t50.5 12.5t40.5 21t20 32.5t8.5 50.5v235q0 30 -17 35.5t-48.5 -7t-67.5 -29.5t-84.5 -32.5t-87.5 -15.5q-176 0 -296 129.5t-120 341.5q0 87 22 167t67.5 150t110.5 122
t157.5 82t201.5 30q248 0 436 -115q-12 -91 -12 -235v-858q0 -32 9.5 -55.5t22 -37t34 -22.5t37 -12t39.5 -6zM633 117q46 0 113 35.5t67 60.5v422q0 99 -70 160t-172 61q-215 0 -215 -324q0 -186 81 -300.5t196 -114.5z" />
    <glyph glyph-name="r" unicode="r" horiz-adv-x="948" 
d="M84 0q-8 0 -14.5 18t-6.5 34t7 20q139 18 139 180v446q0 69 -33 96t-104 35q-12 2 -8 35t16 35l369 92q17 3 25.5 -7t8.5 -26q0 -53 8.5 -84t30.5 -16q6 4 32 22t38 26t36.5 23.5t40.5 23.5t36.5 18t37.5 14t31 4q24 0 65.5 -35t37.5 -61q-29 -186 -74 -186q-2 0 -9 6
t-19.5 14.5t-29.5 16.5t-45 14t-61 6q-166 0 -166 -127v-385q0 -35 4 -59t17 -41.5t28.5 -28.5t45.5 -19.5t61 -14.5t83 -15q9 -1 13 -2q4 -4 4 -20t-13 -34t-32 -18h-600z" />
    <glyph glyph-name="s" unicode="s" horiz-adv-x="935" 
d="M428 -33q-85 0 -165.5 20t-125.5 50t-33 59l48 119q9 19 21 23t28 -4.5t35 -23.5t46 -34t56.5 -35.5t70.5 -27.5t85 -11q85 0 128.5 28.5t32 69.5t-74.5 74l-281 142q-78 40 -125 99.5t-58.5 122t9 126t68.5 113.5t130.5 81t184.5 31q76 0 148 -17.5t112 -46t27 -57.5
l-50 -116q-13 -28 -32.5 -28t-48 19.5t-61 43t-83.5 43.5t-104 20q-65 0 -98.5 -29t-21.5 -67.5t66 -65.5l293 -151q83 -42 132.5 -102.5t61 -123t-11 -125t-74.5 -110.5t-139.5 -78.5t-195.5 -30.5z" />
    <glyph glyph-name="t" unicode="t" horiz-adv-x="917" 
d="M457 -33q-71 0 -147.5 46.5t-76.5 90.5v582q0 91 -33.5 122.5t-136.5 31.5q-18 0 -20 35t12 40q119 43 199 99t172 155q17 16 37.5 14.5t36 -18t10.5 -35.5q-14 -57 -14 -92q0 -57 20.5 -77.5t58.5 -20.5q37 0 126.5 12.5t117.5 14.5q31 3 31 -47q0 -28 -10 -61.5
t-26 -56.5t-32 -22l-96 8q-56 3 -99 3.5t-68 -21.5t-25 -70v-456q0 -58 18 -82.5t74 -24.5q96 0 245 19q7 1 16.5 -17.5t11 -36t-8.5 -24.5q-169 -61 -393 -111z" />
    <glyph glyph-name="u" unicode="u" horiz-adv-x="1331" 
d="M449 -33q-63 0 -111.5 24t-76 64t-41 87.5t-13.5 99.5v446q0 36 -16 63.5t-40.5 42.5t-44 22.5t-36.5 10.5q-9 1 -6.5 33t14.5 33l362 96q19 6 33.5 -7t9.5 -30q-11 -42 -14 -84t-0.5 -96.5t2.5 -60.5v-383q0 -39 1.5 -62.5t9 -50t21 -40t38 -23t59.5 -9.5q40 0 78 5.5
t81 19t69 44t26 73.5v403q0 36 -15.5 63.5t-40 42.5t-44 22.5t-37.5 10.5q-9 1 -6.5 33t14.5 33l362 96q19 6 33.5 -7t9.5 -30q-11 -42 -14 -86t-0.5 -101.5t2.5 -62.5v-479q0 -47 14.5 -74t35.5 -32t45 -6.5t42.5 3t28.5 -2.5q16 -8 16 -35q0 -31 -107 -70t-179 -39
q-21 0 -46.5 22.5t-45 45.5t-50.5 37t-63 -4q-225 -101 -360 -101z" />
    <glyph glyph-name="v" unicode="v" horiz-adv-x="1212" 
d="M1137 952q14 0 20.5 -20.5t2.5 -41.5t-15 -22q-45 -9 -87 -59t-91 -154l-203 -458q-42 -91 -72 -201l-153 -21l-297 682q-44 104 -85.5 152t-88.5 59q-17 3 -17 43.5t19 40.5h460q25 0 27.5 -36t-18.5 -48q-27 -17 -39 -37.5t-7 -63.5t33 -110l152 -354l149 354
q31 70 37.5 114t-12.5 68t-66 29q-17 2 -16 43t18 41h349z" />
    <glyph glyph-name="w" unicode="w" horiz-adv-x="1828" 
d="M1757 952q19 0 19 -40t-17 -44q-46 -13 -92 -66t-84 -147l-188 -458q-67 -157 -76 -201l-150 -21l-251 613l-164 -391q-59 -137 -74 -201l-152 -21l-278 682q-78 186 -182 211q-17 3 -17 43.5t19 40.5h446q16 0 22.5 -19.5t1 -40t-19.5 -24.5q-67 -21 6 -211l142 -358
l184 444q-29 67 -54 94.5t-71 30.5q-20 2 -20 43t22 41h426q24 0 24.5 -38t-20.5 -46q-66 -26 8 -211l140 -354l139 354q23 58 33 89t12.5 61t-11.5 43.5t-46 17.5q-17 2 -17 43t19 41h321z" />
    <glyph glyph-name="x" unicode="x" horiz-adv-x="1173" 
d="M1104 84q19 -2 19 -43t-19 -41h-463q-12 0 -18.5 16.5t-2.5 37.5t19 30q70 54 -27 178l-67 88l-80 -88q-73 -77 -78 -117.5t51 -58.5q19 -6 19 -46t-19 -40h-366q-20 0 -20 40t20 42q55 4 114 49.5t136 130.5l157 176l-194 252q-31 41 -50 63.5t-49 52.5t-59.5 45
t-60.5 17q-19 2 -19 43t19 41h464q12 0 18 -16.5t1.5 -37.5t-19.5 -30q-71 -55 29 -178l68 -88l78 88q132 146 20 178q-23 6 -23 45t23 39h367q14 0 19.5 -20.5t0 -41.5t-19.5 -22q-53 -4 -104 -44.5t-136 -133.5l-160 -176l193 -252q31 -41 50 -63.5t49 -52.5t59.5 -45
t60.5 -17z" />
    <glyph glyph-name="y" unicode="y" horiz-adv-x="1204" 
d="M1130 952q21 0 22 -40t-17 -44q-93 -26 -174 -209l-396 -888q-24 -52 -63.5 -88t-83.5 -52t-79 -22t-67 -6q-83 0 -131 39t-75 110q-14 41 -13 56.5t18 18.5t51 -3q61 -6 103 -6q74 0 128.5 13.5t104 53t79.5 107.5l-295 667q-46 105 -87.5 153t-86.5 56q-17 3 -17 43.5
t19 40.5h460q23 0 24.5 -36t-19.5 -48q-28 -17 -39 -38.5t-4.5 -64t36.5 -106.5l150 -340l145 336q45 104 35 155t-78 58q-17 2 -17 43t19 41h348z" />
    <glyph glyph-name="z" unicode="z" horiz-adv-x="1054" 
d="M944 952q11 0 21.5 -35t1.5 -47l-633 -673h254q69 0 118.5 6t86.5 21.5t51 23.5t47 31q24 16 45.5 -4t9.5 -54l-72 -221q-16 -48 -83 -29q-61 18 -121 23.5t-160 5.5h-416q-14 0 -26 35t0 47l632 674h-200q-89 0 -152 -13.5t-88 -27t-63 -41.5q-24 -16 -46 3.5t-10 53.5
l74 221q17 49 82 29q108 -29 283 -29h364z" />
    <glyph glyph-name="braceleft" unicode="{" horiz-adv-x="1052" 
d="M1004 -152q19 -2 19 -48t-19 -46l-752 21q-23 1 -25.5 14t7.5 52q10 43 16 75t13 108t7 160v320q0 38 -12.5 70t-30 52.5t-45 39.5t-47.5 28.5t-49 22.5q-9 4 -14 6q-10 5 -10 25t10 24q85 38 116 61q82 60 82 158v320q0 84 -7 160t-13 108t-16 75q-10 39 -7.5 52
t25.5 14l752 21q19 0 19 -46.5t-19 -47.5q-35 -3 -89.5 -11t-138.5 -22.5t-137 -22.5q-61 -9 -84 -40t-23 -105v-586q0 -11 -8.5 -21t-26.5 -19t-35.5 -16t-44.5 -14t-44.5 -11.5t-45 -10.5t-36.5 -8v-23q9 -2 36.5 -8t45 -10.5t44.5 -11.5t44.5 -14t35.5 -16t26.5 -19
t8.5 -21v-588q0 -74 23 -105t84 -40q53 -8 137 -22.5t138.5 -22.5t89.5 -11z" />
    <glyph glyph-name="bar" unicode="|" horiz-adv-x="499" 
d="M164 -410q29 216 29 521v1007q0 313 -7 488q-1 19 39 33t73.5 12.5t37.5 -13.5q-29 -216 -29 -520v-1007q0 -338 6 -488q1 -19 -38.5 -33t-73 -13t-37.5 13z" />
    <glyph glyph-name="braceright" unicode="}" horiz-adv-x="1052" 
d="M49 -152q35 3 89.5 11t138.5 22.5t137 22.5q60 9 83 40t23 105v588q0 11 9 21t26.5 19t35.5 16t44.5 14t44.5 11.5t45.5 10.5t36.5 8v23q-9 2 -36.5 8t-45.5 10.5t-44.5 11.5t-44.5 14t-35.5 16t-26.5 19t-9 21v586q0 74 -23 105t-83 40q-53 8 -137 22.5t-138.5 22.5
t-89.5 11q-19 1 -19 47.5t19 46.5l752 -21q23 -1 25.5 -13.5t-7.5 -51.5q-10 -43 -16 -75t-13.5 -108t-7.5 -161v-320q0 -47 17.5 -83.5t47.5 -60.5t58 -39t61 -30l15 -6q11 -4 11 -24t-11 -25q-85 -38 -115 -60q-84 -61 -84 -159v-320q0 -85 7.5 -162t13 -105.5t16.5 -76.5
q10 -39 7.5 -51.5t-25.5 -13.5l-752 -21q-19 0 -19 46t19 48z" />
    <glyph glyph-name="asciitilde" unicode="~" horiz-adv-x="1017" 
d="M895 692v-82q-98 -61 -203 -61q-45 0 -86 12.5t-73 30.5t-63 36.5t-69.5 31t-78.5 12.5q-99 0 -199 -62v82q100 62 203 62q45 0 86 -12.5t73 -31t63 -36.5t69.5 -30.5t78.5 -12.5q101 0 199 61z" />
    <glyph glyph-name="exclamdown" unicode="&#xa1;" horiz-adv-x="598" 
d="M299 989q45 0 110.5 -62.5t65.5 -111.5t-65.5 -111.5t-110.5 -62.5t-110.5 62.5t-65.5 111.5t65.5 111.5t110.5 62.5zM358 485q17 -259 86 -897q3 -36 -71 -60.5t-148 -17.5t-71 46q16 189 45.5 476.5t40.5 405.5q1 30 42 60q44 33 65 14q10 -8 11 -27z" />
    <glyph glyph-name="cent" unicode="&#xa2;" horiz-adv-x="983" 
d="M854 692q7 2 16 -12.5t12 -28.5t-1 -18q-20 -11 -75 -43.5t-99.5 -56.5t-67.5 -29v-187q0 -24 -45 -15q-49 10 -72 38q-8 10 -8 20v152q-65 10 -123.5 31t-114 58t-96 85.5t-64.5 118t-24 151.5q0 64 15 127t48 124.5t81.5 111t121 86.5t160.5 51v129q0 24 48 13
q50 -12 71 -38q6 -8 6 -16v-80q61 -1 117 -12.5t91.5 -34.5t27.5 -51l-21 -78q-9 -34 -21.5 -51.5t-25.5 -21t-33 4t-37.5 19t-46 29t-51.5 28.5l-2 -630q10 -2 29 -2q62 0 184 28zM344 1075q0 -116 48 -206t124 -146l2 602q-86 -4 -130 -75t-44 -175z" />
    <glyph glyph-name="sterling" unicode="&#xa3;" horiz-adv-x="1269" 
d="M1204 301q7 -18 7.5 -49t-5.5 -68.5t-24 -75.5t-44.5 -69.5t-71 -51.5t-99.5 -20q-43 0 -101 14.5t-109.5 31.5t-132 31.5t-163.5 14.5q-80 0 -153.5 -13.5t-194.5 -49.5q-9 -3 -18.5 10.5t-11.5 27.5t5 19q75 28 135 108.5t89.5 175t29.5 181.5q0 40 -6 78h-184
q-24 0 -15 38q10 41 38 61q11 7 20 7h112q-4 11 -17.5 47t-18.5 53t-13.5 48t-12 60t-3.5 61q0 213 159.5 354t409.5 141q198 0 293 -88q15 -25 1 -79.5t-45.5 -104.5t-49.5 -37q-14 10 -50.5 36t-51 35.5t-44.5 27.5t-50.5 25t-49.5 13t-59 6q-27 0 -52 -4t-55 -19
t-51.5 -38.5t-36 -67t-14.5 -100.5q0 -63 17.5 -124t43.5 -128.5t37 -118.5l432 -2q23 0 13 -40q-11 -42 -38 -60q-9 -6 -16 -6l-381 2q0 -82 -26.5 -150t-64 -108.5t-75 -70t-64 -49t-26.5 -30.5q0 -9 3 -10.5t10.5 3t19 12.5t31.5 17.5t44 18t60.5 14t77.5 5.5
q62 0 178.5 -18.5t167.5 -18.5q176 0 176 90q0 23 39.5 23.5t48.5 -21.5z" />
    <glyph glyph-name="currency" unicode="&#xa4;" horiz-adv-x="1075" 
d="M963 584q0 -168 -111 -285l102 -102l-39 -39l-102 100q-121 -100 -274 -100q-152 0 -277 100l-102 -100l-39 39l102 102q-110 116 -110 285q0 163 108 284l-100 101l39 39l102 -101q126 101 277 101t274 -101l102 101l39 -39l-100 -101q109 -122 109 -284zM168 584
q0 -154 108.5 -262.5t262.5 -108.5q152 0 260 108.5t108 262.5q0 152 -108 260t-260 108q-154 0 -262.5 -108t-108.5 -260z" />
    <glyph glyph-name="yen" unicode="&#xa5;" horiz-adv-x="1585" 
d="M1501 1434q17 0 20 -38t-14 -42q-60 -8 -117 -55.5t-124 -151.5l-316 -492v-24h459q24 0 13 -40q-12 -43 -38 -60q-9 -5 -16 -5h-418v-102h459q24 0 13 -41q-11 -42 -38 -60q-8 -6 -16 -6h-418v-53q0 -52 13.5 -86.5t43.5 -53.5t62.5 -28t85.5 -16q7 -1 7 -21t-5.5 -39.5
t-13.5 -19.5h-688q-8 0 -14 20.5t-5.5 38t6.5 21.5q113 16 160 52.5t47 131.5v53h-446q-24 0 -15 39q11 43 39 62q10 6 19 6h403v102h-446q-24 0 -15 38q11 42 39 61q10 6 19 6h403v10l-336 504q-72 107 -122 153.5t-113 55.5q-20 4 -17 42t23 38h592q20 0 22 -38t-16 -42
q-70 -10 -82 -60t47 -147l238 -356l231 356q39 60 39 105.5t-30 70t-83 31.5q-15 3 -19 23t3 38.5t18 18.5h457z" />
    <glyph glyph-name="brokenbar" unicode="&#xa6;" horiz-adv-x="489" 
d="M297 1221v-35q0 -235 6 -385q1 -19 -35.5 -33t-68 -13t-35.5 13q18 268 18 418v35q0 235 -6 385q-1 19 39 33t73.5 12.5t37.5 -13.5q-29 -216 -29 -417zM297 43v-35q0 -235 6 -385q1 -19 -35.5 -33t-68 -13t-35.5 13q1 25 6.5 116.5t8.5 162t3 139.5v35q0 235 -6 385
q-1 19 39 33t73.5 13t37.5 -13q-29 -216 -29 -418z" />
    <glyph glyph-name="section" unicode="&#xa7;" horiz-adv-x="1013" 
d="M444 -29q-136 0 -236 39t-83 86l18 54q13 39 30.5 51t37.5 3.5t52.5 -27.5t68.5 -40t94 -37t121 -16q67 0 116 19t69 49.5t18.5 64.5t-34 68t-89.5 57l-316 125q-77 31 -123.5 81.5t-54 107.5t11.5 113.5t72 106t129 78.5q-98 38 -148 105t-42 138.5t53 136t142.5 106
t221.5 41.5q127 0 216.5 -38t74.5 -83l-18 -55q-11 -33 -23 -46.5t-27.5 -10.5t-33.5 15.5t-46 30.5t-59 35t-78 29t-98 12q-52 0 -93.5 -13.5t-64 -34.5t-29.5 -49t3.5 -55.5t41.5 -55t79 -46.5l313 -125q76 -30 121.5 -80t54 -106.5t-9.5 -113t-70.5 -106.5t-128.5 -81
q137 -55 175 -162q36 -102 -30 -200q-75 -111 -237 -152q-76 -19 -162 -19zM461 879q-63 0 -110 -18.5t-65.5 -47.5t-16.5 -62.5t35 -67.5t91 -58q88 -37 131 -45q30 -5 60 -5q77 0 127 29.5t59.5 70t-22 85.5t-101.5 74q-106 45 -188 45z" />
    <glyph glyph-name="dieresis" unicode="&#xa8;" horiz-adv-x="862" 
d="M207 1135q-43 0 -104.5 60t-61.5 108q0 45 62 104t104 59t104 -59t62 -104q0 -48 -61.5 -108t-104.5 -60zM655 1135q-43 0 -104.5 60t-61.5 108q0 45 62 104t104 59t104 -59t62 -104q0 -48 -61.5 -108t-104.5 -60z" />
    <glyph glyph-name="copyright" unicode="&#xa9;" horiz-adv-x="1466" 
d="M733 233q-168 0 -311 83t-226 225.5t-83 310.5q0 167 83 308.5t226 223.5t311 82t311 -82t226.5 -223.5t83.5 -308.5q0 -168 -83.5 -310.5t-226.5 -225.5t-311 -83zM733 291q152 0 281.5 75t205.5 204t76 282q0 151 -76 279.5t-205.5 203t-281.5 74.5t-281.5 -74.5
t-205.5 -203t-76 -279.5q0 -153 76 -282t205.5 -204t281.5 -75zM772 485q-51 0 -101.5 11.5t-101 38t-88.5 64.5t-62 96.5t-24 129.5q0 52 12 102t40.5 99t71 85.5t107.5 59.5t146 23q56 0 104 -10.5t73.5 -27t19.5 -32.5l-15 -43q-12 -35 -23.5 -44.5t-30 0t-40.5 25
t-64 30t-91 14.5q-97 0 -142 -57.5t-45 -157.5q0 -78 27.5 -138.5t71 -94t90.5 -50t94 -16.5q23 0 77.5 11t77.5 26q6 3 17.5 -11t7.5 -20q-28 -41 -102 -77t-107 -36z" />
    <glyph glyph-name="guillemotleft" unicode="&#xab;" horiz-adv-x="1329" 
d="M586 954q14 13 40 -1t42 -39t4 -40l-314 -397l314 -397q12 -15 -4 -40t-42 -39t-40 -1l-471 397q-12 12 -12 80.5t12 79.5zM1139 954q14 13 40 -1t42 -39t4 -40l-314 -397l314 -397q12 -15 -4 -40t-42 -39t-40 -1l-471 397q-12 12 -12 80.5t12 79.5z" />
    <glyph glyph-name="logicalnot" unicode="&#xac;" horiz-adv-x="1017" 
d="M895 692v-284h-82v202h-690v82h772z" />
    <glyph glyph-name="registered" unicode="&#xae;" horiz-adv-x="1466" 
d="M733 1466q168 0 311 -82t226.5 -223.5t83.5 -308.5q0 -168 -83.5 -310.5t-226.5 -225.5t-311 -83t-311 83t-226 225.5t-83 310.5q0 167 83 308.5t226 223.5t311 82zM733 291q152 0 281.5 75t205.5 204t76 282q0 151 -76 279.5t-205.5 203t-281.5 74.5t-281.5 -74.5
t-205.5 -203t-76 -279.5q0 -153 76 -282t205.5 -204t281.5 -75zM1108 573q6 0 5.5 -12t-5.5 -14q-134 -34 -201 55l-131 166q-27 37 -54.5 47t-76.5 10v-163q0 -42 24 -57.5t70 -20.5q3 0 3 -8t-2 -16.5t-5 -8.5h-282q-3 0 -5 8.5t-2 16.5t3 8q69 9 69 78v374q0 40 -17 58
t-52 26q-4 2 -2.5 18.5t6.5 16.5q33 -6 100 -6q41 0 103.5 3t80.5 3q106 0 165 -42t59 -118q0 -68 -45.5 -107t-112.5 -42v-4q55 0 110 -66l121 -153q40 -50 74 -50zM666 870q96 0 129.5 20.5t33.5 80.5q0 65 -34 99t-90 34q-35 0 -47.5 -15.5t-12.5 -52.5v-166h21z" />
    <glyph glyph-name="macron" unicode="&#xaf;" horiz-adv-x="696" 
d="M641 1352q24 0 9 -50q-15 -53 -44 -74q-8 -7 -16 -7h-533q-24 0 -10 48q14 52 44 75q11 8 20 8h530z" />
    <glyph glyph-name="degree" unicode="&#xb0;" horiz-adv-x="1007" 
d="M504 690q-161 0 -276 114t-115 275t114.5 274t276.5 113t276.5 -113t114.5 -274t-115 -275t-276 -114zM504 756q133 0 227 94.5t94 228.5q0 133 -93.5 226.5t-227.5 93.5t-228 -93.5t-94 -226.5q0 -134 94.5 -228.5t227.5 -94.5z" />
    <glyph glyph-name="plusminus" unicode="&#xb1;" horiz-adv-x="1058" 
d="M569 692h367v-82h-367v-366h-82v366h-364v82h364v365h82v-365zM123 0v82h813v-82h-813z" />
    <glyph glyph-name="acute" unicode="&#xb4;" horiz-adv-x="442" 
d="M45 1204l178 266q17 25 70 -7.5t89 -81.5t13 -66l-262 -197q-20 -15 -61.5 24.5t-26.5 61.5z" />
    <glyph glyph-name="paragraph" unicode="&#xb6;" horiz-adv-x="1490" 
d="M1409 1438q14 2 18.5 -37.5t-8.5 -42.5q-5 -1 -16 -4q-24 -6 -36.5 -9.5t-33 -10.5t-31 -14.5t-24.5 -21t-20.5 -29t-11.5 -38.5t-5 -51v-1069q0 -288 4 -488q2 -19 -65 -33t-124 -13t-65 13q27 201 27 521v1069q0 96 -61 132t-212 36q-83 0 -142.5 -14.5t-108.5 -51.5
t-74 -107.5t-25 -175.5q0 -171 75.5 -260t199.5 -104v577q0 12 55 24.5t110.5 11t55.5 -22.5v-1114q0 -288 4 -488q2 -19 -65 -33t-124.5 -13t-66.5 13q31 205 31 521v430q-83 -2 -161 12t-150.5 49t-126.5 87t-86.5 131t-32.5 175q0 443 616 443q75 0 207 -6.5t194 -6.5
q167 0 279 13z" />
    <glyph glyph-name="periodcentered" unicode="&#xb7;" horiz-adv-x="671" 
d="M330 346q-45 0 -110.5 62.5t-65.5 111.5t65.5 111.5t110.5 62.5t110.5 -62.5t65.5 -111.5t-65.5 -111.5t-110.5 -62.5z" />
    <glyph glyph-name="cedilla" unicode="&#xb8;" horiz-adv-x="464" 
d="M209 -455q-89 0 -143 52q-34 34 -23 57q7 15 33 14q92 -4 123.5 18.5t31.5 71.5q0 37 -15.5 66t-31.5 52t-16 44q0 33 42 56t109 24v-29q-30 -10 -30 -34q0 -16 14 -33.5t33.5 -34.5t39.5 -36.5t34 -48.5t14 -63q0 -66 -61 -121t-154 -55z" />
    <glyph glyph-name="guillemotright" unicode="&#xbb;" horiz-adv-x="1329" 
d="M190 954l472 -397q12 -11 12 -79.5t-12 -80.5l-472 -397q-14 -13 -40 1t-42 39t-4 40l314 397l-314 397q-12 15 4 40t42 39t40 1zM743 954l471 -397q12 -11 12 -79.5t-12 -80.5l-471 -397q-14 -13 -40 1t-42 39t-4 40l314 397l-314 397q-12 15 4 40t42 39t40 1z" />
    <glyph glyph-name="onequarter" unicode="&#xbc;" horiz-adv-x="2818" 
d="M1659 1507q13 12 40.5 2t50 -35t11.5 -40l-993 -1467q-15 -14 -42.5 -4.5t-50 35.5t-11.5 43zM643 565q9 -1 5.5 -33t-11.5 -32h-582q-8 0 -12 32t6 33q89 8 126.5 32t37.5 89v461q0 44 -9 63.5t-44.5 31t-110.5 11.5q-7 0 -7 31.5t7 34.5l471 147q8 3 19.5 -9t17.5 -26
t2 -16q-65 -54 -65 -205v-524q0 -65 35.5 -89.5t113.5 -31.5zM2660 354q62 41 76 23q4 -5 2 -17l-47 -227q-3 -21 -28 -23t-40 9q-32 16 -79 16q0 -110 2 -139q1 -12 -77.5 -20.5t-146.5 -8t-79 5.5q7 56 14 164h-416q-8 0 -29 98t-16 103l488 629q12 13 144 -0.5t146 -20.5
q-32 -68 -32 -205v-417q78 6 118 30zM1925 317h336v5v362q0 19 -9.5 19t-23.5 -17z" />
    <glyph glyph-name="onehalf" unicode="&#xbd;" horiz-adv-x="2619" 
d="M1659 1507q13 12 40.5 2t50 -35t11.5 -40l-993 -1467q-15 -14 -42.5 -4.5t-50 35.5t-11.5 43zM55 500q-8 0 -12 32t6 33q89 8 126.5 32t37.5 89v461q0 44 -9 63.5t-44.5 31t-110.5 11.5q-7 0 -7 31.5t7 34.5l471 147q8 3 19.5 -9t17.5 -26t2 -16q-65 -54 -65 -205v-524
q0 -65 35.5 -89.5t113.5 -31.5q9 -1 5.5 -33t-11.5 -32h-582zM2474 -4q-282 10 -367 10q-250 0 -352 -8q-14 -2 -18 10.5t6 24.5l428 493q90 105 90 203q0 55 -28.5 85t-73.5 30q-85 0 -204 -111q-13 -12 -37 -36q-61 -60 -79 -64q-19 -5 -25 23q-2 13 -2 32v139
q0 47 96.5 94.5t237.5 47.5q72 0 133.5 -14.5t113.5 -46t82 -88t30 -132.5q0 -40 -10.5 -75.5t-23.5 -59t-42.5 -54t-48 -46t-58.5 -47.5l-243 -185q-18 -13 -15 -20.5t21 -7.5h31q56 1 97.5 3.5t71 6t51 11.5t33.5 14t22.5 20t15 23t13.5 29.5t15 33.5q2 5 20.5 6t35.5 -1
t16 -5q-16 -48 -24.5 -150.5t-8.5 -187.5z" />
    <glyph glyph-name="threequarters" unicode="&#xbe;" horiz-adv-x="3072" 
d="M1913 1507q13 12 40.5 2t50 -35t11.5 -40l-993 -1467q-15 -14 -42.5 -4.5t-50 35.5t-11.5 43zM543 1010q80 0 151 -28.5t119.5 -88.5t48.5 -139q0 -123 -121.5 -200t-324.5 -77q-27 0 -69.5 3.5t-110 18.5t-99.5 40q-8 6 5.5 42t23.5 33q29 -8 68 -16t65 -12t31 -4
q81 0 134 12t81.5 38t39.5 59.5t11 84.5q0 97 -49.5 130.5t-163.5 33.5h-43q-12 0 -13 43t11 45l49 6q85 11 125.5 67.5t40.5 129.5q0 62 -27.5 93.5t-99.5 31.5q-141 0 -221 -127q-7 -7 -24.5 -3.5t-34 14t-11.5 17.5l107 166q26 43 168 43q168 0 276.5 -59t108.5 -158
q0 -48 -18 -85t-56 -65t-77 -47t-101 -42zM2914 354q62 41 76 23q4 -5 2 -17l-47 -227q-3 -21 -28 -23t-40 9q-32 16 -79 16q0 -110 2 -139q1 -12 -77.5 -20.5t-146.5 -8t-79 5.5q7 56 14 164h-416q-8 0 -29 98t-16 103l487 629q12 13 144.5 -0.5t146.5 -20.5
q-32 -68 -32 -205v-417q78 6 118 30zM2179 317h336v5v362q0 19 -9.5 19t-23.5 -17z" />
    <glyph glyph-name="questiondown" unicode="&#xbf;" horiz-adv-x="1052" 
d="M629 989q45 0 110.5 -62.5t65.5 -111.5t-65.5 -111.5t-110.5 -62.5t-110.5 62.5t-65.5 111.5t65.5 111.5t110.5 62.5zM711 545q2 -3 13 -16.5t17 -22t14 -23.5t11.5 -31.5t3.5 -35.5q0 -29 -9 -57t-19.5 -47.5t-35.5 -48t-40.5 -43.5t-51.5 -48q-136 -124 -183.5 -207.5
t-47.5 -163.5q0 -77 33.5 -107t111.5 -30q72 0 141.5 25t111 52.5t75.5 46.5t51.5 7.5t24.5 -65.5l8 -68q6 -46 -49.5 -84t-136.5 -57t-164 -19q-89 0 -173 23.5t-152.5 68t-110 116.5t-41.5 161q0 62 19 115t63.5 106.5t96.5 99.5t138 113q113 87 147.5 125.5t34.5 73.5
q0 12 44 33.5t55 7.5z" />
    <glyph glyph-name="Agrave" unicode="&#xc0;" horiz-adv-x="1640" 
d="M1018 1686q15 -22 -26.5 -62t-61.5 -25l-262 197q-23 17 13 66.5t89 82t70 7.5zM1573 78q20 -3 17.5 -40.5t-21.5 -37.5h-592q-21 0 -21.5 37.5t15.5 40.5q23 4 37 8.5t33 13.5t27.5 23.5t14 36t-2 53.5t-25.5 74l-11 18q-14 38 -33.5 49t-62.5 11h-401q-48 0 -68 -11
t-37 -49l-6 -18q-20 -48 -24 -84t4 -57.5t28.5 -36t42.5 -21t54 -10.5q14 -2 17.5 -21.5t-3.5 -38t-20 -18.5h-461q-17 0 -20 37.5t14 40.5q34 6 56.5 15t48 30.5t49 61t50.5 102.5l346 805q61 135 83 204t22 127q0 9 71.5 25t75.5 6l500 -1165q51 -118 94 -159.5t109 -51.5
zM911 496q23 0 35 7t4 27l-205 496l-206 -496q-8 -20 4 -27t37 -7h331z" />
    <glyph glyph-name="Aacute" unicode="&#xc1;" horiz-adv-x="1640" 
d="M670 1686l178 266q17 25 70 -7.5t89 -82t13 -66.5l-262 -197q-20 -15 -61.5 25t-26.5 62zM1573 78q20 -3 17.5 -40.5t-21.5 -37.5h-592q-21 0 -21.5 37.5t15.5 40.5q23 4 37 8.5t33 13.5t27.5 23.5t14 36t-2 53.5t-25.5 74l-11 18q-14 38 -33.5 49t-62.5 11h-401
q-48 0 -68 -11t-37 -49l-6 -18q-20 -48 -24 -84t4 -57.5t28.5 -36t42.5 -21t54 -10.5q14 -2 17.5 -21.5t-3.5 -38t-20 -18.5h-461q-17 0 -20 37.5t14 40.5q34 6 56.5 15t48 30.5t49 61t50.5 102.5l346 805q61 135 83 204t22 127q0 9 71.5 25t75.5 6l500 -1165
q51 -118 94 -159.5t109 -51.5zM911 496q23 0 35 7t4 27l-205 496l-206 -496q-8 -20 4 -27t37 -7h331z" />
    <glyph glyph-name="Acircumflex" unicode="&#xc2;" horiz-adv-x="1640" 
d="M1104 1659q15 -22 -31 -56t-67 -14l-162 150l-164 -150q-21 -20 -66 14t-30 56l190 276q8 11 68 11.5t69 -11.5zM1573 78q20 -3 17.5 -40.5t-21.5 -37.5h-592q-21 0 -21.5 37.5t15.5 40.5q23 4 37 8.5t33 13.5t27.5 23.5t14 36t-2 53.5t-25.5 74l-11 18q-14 38 -33.5 49
t-62.5 11h-401q-48 0 -68 -11t-37 -49l-6 -18q-20 -48 -24 -84t4 -57.5t28.5 -36t42.5 -21t54 -10.5q14 -2 17.5 -21.5t-3.5 -38t-20 -18.5h-461q-17 0 -20 37.5t14 40.5q34 6 56.5 15t48 30.5t49 61t50.5 102.5l346 805q61 135 83 204t22 127q0 9 71.5 25t75.5 6l500 -1165
q51 -118 94 -159.5t109 -51.5zM911 496q23 0 35 7t4 27l-205 496l-206 -496q-8 -20 4 -27t37 -7h331z" />
    <glyph glyph-name="Atilde" unicode="&#xc3;" horiz-adv-x="1640" 
d="M1083 1911q5 5 24 -4.5t34.5 -22.5t11.5 -18q-12 -16 -35 -45.5t-35 -44.5t-29.5 -35.5t-33.5 -35t-33 -26.5q-47 0 -134 36t-120 36q-23 0 -62 -20t-67 -48q-5 -5 -24.5 4.5t-35.5 23t-12 18.5q11 14 34.5 44.5t35 45t29.5 35.5t34 35t33 26q48 0 135 -36t119 -36
q23 0 63.5 20.5t67.5 47.5zM1573 78q20 -3 17.5 -40.5t-21.5 -37.5h-592q-21 0 -21.5 37.5t15.5 40.5q23 4 37 8.5t33 13.5t27.5 23.5t14 36t-2 53.5t-25.5 74l-11 18q-14 38 -33.5 49t-62.5 11h-401q-48 0 -68 -11t-37 -49l-6 -18q-20 -48 -24 -84t4 -57.5t28.5 -36
t42.5 -21t54 -10.5q14 -2 17.5 -21.5t-3.5 -38t-20 -18.5h-461q-17 0 -20 37.5t14 40.5q34 6 56.5 15t48 30.5t49 61t50.5 102.5l346 805q61 135 83 204t22 127q0 9 71.5 25t75.5 6l500 -1165q51 -118 94 -159.5t109 -51.5zM911 496q23 0 35 7t4 27l-205 496l-206 -496
q-8 -20 4 -27t37 -7h331z" />
    <glyph glyph-name="Adieresis" unicode="&#xc4;" horiz-adv-x="1640" 
d="M618 1616q-43 0 -104 60t-61 108q0 45 61.5 104.5t103.5 59.5t104 -59.5t62 -104.5q0 -48 -61.5 -108t-104.5 -60zM1067 1616q-43 0 -104.5 60t-61.5 108q0 45 62 104.5t104 59.5t104 -59.5t62 -104.5q0 -48 -61.5 -108t-104.5 -60zM1573 78q20 -3 17.5 -40.5
t-21.5 -37.5h-592q-21 0 -21.5 37.5t15.5 40.5q23 4 37 8.5t33 13.5t27.5 23.5t14 36t-2 53.5t-25.5 74l-11 18q-14 38 -33.5 49t-62.5 11h-401q-48 0 -68 -11t-37 -49l-6 -18q-20 -48 -24 -84t4 -57.5t28.5 -36t42.5 -21t54 -10.5q14 -2 17.5 -21.5t-3.5 -38t-20 -18.5
h-461q-17 0 -20 37.5t14 40.5q34 6 56.5 15t48 30.5t49 61t50.5 102.5l346 805q61 135 83 204t22 127q0 9 71.5 25t75.5 6l500 -1165q51 -118 94 -159.5t109 -51.5zM911 496q23 0 35 7t4 27l-205 496l-206 -496q-8 -20 4 -27t37 -7h331z" />
    <glyph glyph-name="Aring" unicode="&#xc5;" horiz-adv-x="1640" 
d="M844 1599q-71 0 -118.5 47t-47.5 119t47.5 119t118.5 47t118.5 -47t47.5 -119t-47.5 -119t-118.5 -47zM844 1698q28 0 47.5 19.5t19.5 47.5t-19.5 48t-47.5 20t-48 -20t-20 -48t20 -47.5t48 -19.5zM1573 78q20 -3 17.5 -40.5t-21.5 -37.5h-592q-21 0 -21.5 37.5
t15.5 40.5q23 4 37 8.5t33 13.5t27.5 23.5t14 36t-2 53.5t-25.5 74l-11 18q-14 38 -33.5 49t-62.5 11h-401q-48 0 -68 -11t-37 -49l-6 -18q-20 -48 -24 -84t4 -57.5t28.5 -36t42.5 -21t54 -10.5q14 -2 17.5 -21.5t-3.5 -38t-20 -18.5h-461q-17 0 -20 37.5t14 40.5
q34 6 56.5 15t48 30.5t49 61t50.5 102.5l346 805q61 135 83 204t22 127q0 9 71.5 25t75.5 6l500 -1165q51 -118 94 -159.5t109 -51.5zM911 496q23 0 35 7t4 27l-205 496l-206 -496q-8 -20 4 -27t37 -7h331z" />
    <glyph glyph-name="AE" unicode="&#xc6;" horiz-adv-x="2209" 
d="M2052 340q9 13 42.5 2t33.5 -33q0 -49 -27.5 -121t-82.5 -133t-117 -59q-282 12 -390 12q-27 0 -144.5 0.5t-176 0t-149 -3.5t-154.5 -9q-9 -1 -15.5 20t-6 43.5t8.5 24.5q100 27 132 45q73 50 75 156v118q-26 23 -106 23h-219q-68 0 -105.5 -10.5t-62.5 -46.5l160 245
q-15 -23 28 -28q16 -2 62 -2h137q83 0 106 18v535l-549 -850q-52 -78 -55 -121.5t33.5 -61.5t122.5 -24q13 -1 15.5 -21t-5 -39.5t-20.5 -19.5h-545q-13 0 -21 19.5t-6 39.5t15 21q161 11 290 207l525 805q29 45 44 68.5t31 54t19.5 46.5t2.5 35t-12 32t-32 26l-21 6
q-7 2 -7.5 22t5 38.5t11.5 17.5q51 -8 139.5 -11.5t157 -3.5t157.5 1t97 1q108 0 275.5 6t217.5 7q36 0 44.5 -22.5t-1.5 -59.5l-47 -197q-6 -23 -34 -23t-34 23q-19 57 -49 87t-99 46.5t-192 16.5q-95 0 -133.5 -30.5t-38.5 -102.5v-324q0 -37 17 -50.5t51 -13.5h53
q116 0 216.5 20t152.5 62q18 16 40.5 8.5t8.5 -38.5l-111 -258q-13 -30 -35 -30t-40 26q-32 48 -98.5 72t-147.5 24h-39q-34 0 -51 -13.5t-17 -50.5v-325q0 -89 42.5 -126.5t158.5 -37.5q95 0 180 24t141.5 61.5t91.5 70.5t56 63z" />
    <glyph glyph-name="Ccedilla" unicode="&#xc7;" horiz-adv-x="1462" 
d="M1303 270q12 8 38 -22t17 -43q-40 -60 -136.5 -118t-183 -89t-125.5 -31q-67 0 -153 13v-9q-31 -11 -31 -34q0 -16 14 -33.5t33.5 -34.5t39.5 -36.5t34 -48.5t14 -63q0 -66 -61 -121t-154 -55q-89 0 -143 52q-34 34 -23 57q7 15 33 14q92 -4 124 18.5t32 71.5
q0 37 -16 66t-32 52t-16 44q0 24 24 43.5t64 28.5q-116 27 -216 80t-184.5 135.5t-133.5 205.5t-49 273q0 110 25.5 216t86 209.5t150 181t228 125.5t308.5 48q118 0 220.5 -21.5t157 -56t42.5 -69.5l-31 -88q-22 -63 -44.5 -86.5t-46.5 -16.5t-64.5 30.5t-86 51t-124 49
t-166.5 21.5q-104 0 -181.5 -33t-123.5 -95t-68 -143t-22 -184q0 -134 39 -244t101 -180t143 -118.5t161 -69t158 -20.5q48 0 164.5 22.5t163.5 54.5z" />
    <glyph glyph-name="Egrave" unicode="&#xc8;" horiz-adv-x="1396" 
d="M856 1686q15 -22 -26.5 -62t-61.5 -25l-262 197q-23 17 13 66.5t89 82t70 7.5zM72 -4q-9 -1 -15.5 20t-6 43.5t8.5 24.5q100 27 132 45q73 50 75 156v895q0 44 -13 76t-40 51.5t-51.5 30.5t-63.5 22q-7 2 -7.5 22t4.5 38.5t11 17.5q51 -8 139.5 -11.5t157 -3.5t157.5 1
t97 1q108 0 277.5 6t216.5 7q36 0 44.5 -22.5t-1.5 -59.5l-47 -197q-5 -23 -33.5 -23t-34.5 23q-19 57 -49 87t-99 46.5t-192 16.5q-95 0 -133.5 -30.5t-38.5 -102.5v-324q0 -37 17 -50.5t51 -13.5h53q116 0 216.5 20t152.5 62q18 16 40.5 8.5t8.5 -38.5l-111 -258
q-13 -30 -35 -30t-40 26q-32 48 -98.5 72t-147.5 24h-39q-34 0 -51 -13.5t-17 -50.5v-325q0 -89 42.5 -126.5t158.5 -37.5q95 0 180 24t141.5 61.5t91.5 70.5t56 63q9 13 43.5 2t34.5 -33q0 -35 -17.5 -87t-46.5 -103.5t-73.5 -87.5t-92.5 -35q-278 12 -389 12
q-27 0 -144 0.5t-176 0t-149.5 -3.5t-154.5 -9z" />
    <glyph glyph-name="Eacute" unicode="&#xc9;" horiz-adv-x="1396" 
d="M508 1686l178 266q17 25 70 -7.5t89 -82t13 -66.5l-262 -197q-20 -15 -61.5 25t-26.5 62zM72 -4q-9 -1 -15.5 20t-6 43.5t8.5 24.5q100 27 132 45q73 50 75 156v895q0 44 -13 76t-40 51.5t-51.5 30.5t-63.5 22q-7 2 -7.5 22t4.5 38.5t11 17.5q51 -8 139.5 -11.5t157 -3.5
t157.5 1t97 1q108 0 277.5 6t216.5 7q36 0 44.5 -22.5t-1.5 -59.5l-47 -197q-5 -23 -33.5 -23t-34.5 23q-19 57 -49 87t-99 46.5t-192 16.5q-95 0 -133.5 -30.5t-38.5 -102.5v-324q0 -37 17 -50.5t51 -13.5h53q116 0 216.5 20t152.5 62q18 16 40.5 8.5t8.5 -38.5l-111 -258
q-13 -30 -35 -30t-40 26q-32 48 -98.5 72t-147.5 24h-39q-34 0 -51 -13.5t-17 -50.5v-325q0 -89 42.5 -126.5t158.5 -37.5q95 0 180 24t141.5 61.5t91.5 70.5t56 63q9 13 43.5 2t34.5 -33q0 -35 -17.5 -87t-46.5 -103.5t-73.5 -87.5t-92.5 -35q-278 12 -389 12
q-27 0 -144 0.5t-176 0t-149.5 -3.5t-154.5 -9z" />
    <glyph glyph-name="Ecircumflex" unicode="&#xca;" horiz-adv-x="1396" 
d="M942 1659q15 -22 -31 -56t-67 -14l-162 150l-164 -150q-21 -20 -66 14t-30 56l190 276q8 11 68.5 11.5t69.5 -11.5zM72 -4q-9 -1 -15.5 20t-6 43.5t8.5 24.5q100 27 132 45q73 50 75 156v895q0 44 -13 76t-40 51.5t-51.5 30.5t-63.5 22q-7 2 -7.5 22t4.5 38.5t11 17.5
q51 -8 139.5 -11.5t157 -3.5t157.5 1t97 1q108 0 277.5 6t216.5 7q36 0 44.5 -22.5t-1.5 -59.5l-47 -197q-5 -23 -33.5 -23t-34.5 23q-19 57 -49 87t-99 46.5t-192 16.5q-95 0 -133.5 -30.5t-38.5 -102.5v-324q0 -37 17 -50.5t51 -13.5h53q116 0 216.5 20t152.5 62
q18 16 40.5 8.5t8.5 -38.5l-111 -258q-13 -30 -35 -30t-40 26q-32 48 -98.5 72t-147.5 24h-39q-34 0 -51 -13.5t-17 -50.5v-325q0 -89 42.5 -126.5t158.5 -37.5q95 0 180 24t141.5 61.5t91.5 70.5t56 63q9 13 43.5 2t34.5 -33q0 -35 -17.5 -87t-46.5 -103.5t-73.5 -87.5
t-92.5 -35q-278 12 -389 12q-27 0 -144 0.5t-176 0t-149.5 -3.5t-154.5 -9z" />
    <glyph glyph-name="Edieresis" unicode="&#xcb;" horiz-adv-x="1396" 
d="M457 1616q-43 0 -104.5 60t-61.5 108q0 45 62 104.5t104 59.5t104 -59.5t62 -104.5q0 -48 -61.5 -108t-104.5 -60zM905 1616q-43 0 -104.5 60t-61.5 108q0 45 62 104.5t104 59.5t104 -59.5t62 -104.5q0 -48 -61.5 -108t-104.5 -60zM72 -4q-9 -1 -15.5 20t-6 43.5
t8.5 24.5q100 27 132 45q73 50 75 156v895q0 44 -13 76t-40 51.5t-51.5 30.5t-63.5 22q-7 2 -7.5 22t4.5 38.5t11 17.5q51 -8 139.5 -11.5t157 -3.5t157.5 1t97 1q108 0 277.5 6t216.5 7q36 0 44.5 -22.5t-1.5 -59.5l-47 -197q-5 -23 -33.5 -23t-34.5 23q-19 57 -49 87
t-99 46.5t-192 16.5q-95 0 -133.5 -30.5t-38.5 -102.5v-324q0 -37 17 -50.5t51 -13.5h53q116 0 216.5 20t152.5 62q18 16 40.5 8.5t8.5 -38.5l-111 -258q-13 -30 -35 -30t-40 26q-32 48 -98.5 72t-147.5 24h-39q-34 0 -51 -13.5t-17 -50.5v-325q0 -89 42.5 -126.5
t158.5 -37.5q95 0 180 24t141.5 61.5t91.5 70.5t56 63q9 13 43.5 2t34.5 -33q0 -35 -17.5 -87t-46.5 -103.5t-73.5 -87.5t-92.5 -35q-278 12 -389 12q-27 0 -144 0.5t-176 0t-149.5 -3.5t-154.5 -9z" />
    <glyph glyph-name="Igrave" unicode="&#xcc;" horiz-adv-x="815" 
d="M582 1686q15 -22 -26.5 -62t-61.5 -25l-263 197q-23 17 13 66.5t88.5 82t68.5 7.5zM102 0q-8 0 -14 19.5t-6 39.5t8 21q86 11 126 52.5t40 131.5v905q0 90 -40 132t-126 53q-8 1 -8 21t6 39.5t14 19.5h611q8 0 14 -19.5t6 -39.5t-8 -21q-37 -5 -63.5 -14.5t-52 -28.5
t-39 -55t-13.5 -87v-905q0 -51 13.5 -86.5t39 -55t52 -28.5t63.5 -14q8 -1 8 -21t-6 -39.5t-14 -19.5h-611z" />
    <glyph glyph-name="Iacute" unicode="&#xcd;" horiz-adv-x="815" 
d="M233 1686l179 266q17 25 70 -7.5t89 -82t13 -66.5l-262 -197q-20 -15 -62 25t-27 62zM102 0q-8 0 -14 19.5t-6 39.5t8 21q86 11 126 52.5t40 131.5v905q0 90 -40 132t-126 53q-8 1 -8 21t6 39.5t14 19.5h611q8 0 14 -19.5t6 -39.5t-8 -21q-37 -5 -63.5 -14.5t-52 -28.5
t-39 -55t-13.5 -87v-905q0 -51 13.5 -86.5t39 -55t52 -28.5t63.5 -14q8 -1 8 -21t-6 -39.5t-14 -19.5h-611z" />
    <glyph glyph-name="Icircumflex" unicode="&#xce;" horiz-adv-x="815" 
d="M668 1659q15 -22 -31.5 -56t-67.5 -14l-161 150l-164 -150q-21 -20 -66.5 14t-30.5 56l191 276q8 11 68 11.5t69 -11.5zM102 0q-8 0 -14 19.5t-6 39.5t8 21q86 11 126 52.5t40 131.5v905q0 90 -40 132t-126 53q-8 1 -8 21t6 39.5t14 19.5h611q8 0 14 -19.5t6 -39.5
t-8 -21q-37 -5 -63.5 -14.5t-52 -28.5t-39 -55t-13.5 -87v-905q0 -51 13.5 -86.5t39 -55t52 -28.5t63.5 -14q8 -1 8 -21t-6 -39.5t-14 -19.5h-611z" />
    <glyph glyph-name="Idieresis" unicode="&#xcf;" horiz-adv-x="815" 
d="M182 1616q-43 0 -104.5 60t-61.5 108q0 45 62 104.5t104 59.5t104 -59.5t62 -104.5q0 -48 -61.5 -108t-104.5 -60zM631 1616q-43 0 -104.5 60t-61.5 108q0 45 62 104.5t104 59.5t104 -59.5t62 -104.5q0 -48 -61.5 -108t-104.5 -60zM102 0q-8 0 -14 19.5t-6 39.5t8 21
q86 11 126 52.5t40 131.5v905q0 90 -40 132t-126 53q-8 1 -8 21t6 39.5t14 19.5h611q8 0 14 -19.5t6 -39.5t-8 -21q-37 -5 -63.5 -14.5t-52 -28.5t-39 -55t-13.5 -87v-905q0 -51 13.5 -86.5t39 -55t52 -28.5t63.5 -14q8 -1 8 -21t-6 -39.5t-14 -19.5h-611z" />
    <glyph glyph-name="Eth" unicode="&#xd0;" horiz-adv-x="1685" 
d="M819 1438q175 0 320 -52.5t241.5 -145t149.5 -218.5t53 -272q0 -145 -51.5 -279t-145.5 -240.5t-242 -170.5t-327 -64q-39 0 -171 6t-228 6q-236 0 -346 -12q-9 -1 -15.5 20t-6 43.5t8.5 24.5q100 27 132 45q73 50 75 156v381h-147q-17 0 -23.5 26t0 52t23.5 26h147v410
q0 44 -13 76t-39.5 52t-52 31t-63.5 21q-7 2 -7.5 22t4.5 38.5t11 17.5q109 -13 283 -13q102 0 245.5 6.5t184.5 6.5zM862 117q221 0 320.5 120t99.5 367q0 206 -64.5 367t-187.5 253.5t-287 92.5q-93 0 -134.5 -32.5t-41.5 -104.5v-410h107q17 0 23.5 -26t0 -52t-23.5 -26
h-107v-381q0 -81 74.5 -124.5t220.5 -43.5z" />
    <glyph glyph-name="Ntilde" unicode="&#xd1;" horiz-adv-x="1748" 
d="M1133 1911q5 5 23.5 -4.5t34 -22.5t11.5 -18q-12 -16 -35 -45.5t-35 -44.5t-29.5 -35.5t-33.5 -35t-33 -26.5q-48 0 -135 36t-119 36q-23 0 -62 -20t-67 -48q-5 -5 -24 4.5t-35 23t-12 18.5q11 14 34.5 44.5t35 45t29.5 35.5t34 35t33 26q48 0 134 -36t119 -36
q23 0 64 20.5t68 47.5zM1454 -20q-49 0 -84 38l-960 953v-697q0 -24 3.5 -43.5t8 -34.5t16 -28.5t18.5 -22t26.5 -18t29 -14t36 -12t38 -10.5t43.5 -11q12 -3 7 -41.5t-20 -38.5h-528q-11 0 -16.5 38t8.5 42q12 6 36 15t38.5 15t33.5 19.5t29.5 30.5t18.5 46.5t8 67.5v766
q0 41 -3 75.5t-6.5 56t-12.5 47t-13 35.5t-16 34t-15 31q-11 16 -23.5 31.5t-18 22.5t-5.5 9q0 19 11.5 35.5t37.5 16.5h164q30 0 47 -19l938 -940v688q0 33 -5.5 59t-21 44.5t-28 30t-41 22t-45 15.5t-54.5 14l-24 6q-12 3 -7.5 41.5t19.5 38.5h529q11 0 14.5 -38.5
t-6.5 -41.5q-6 -2 -25.5 -9t-25.5 -9t-22.5 -9t-22.5 -11.5t-18.5 -13.5t-17.5 -17.5t-13 -21.5t-11 -27t-5.5 -32.5t-2.5 -40.5v-770q0 -269 25 -377q4 -20 -12.5 -28t-53.5 -8z" />
    <glyph glyph-name="Ograve" unicode="&#xd2;" horiz-adv-x="1720" 
d="M1034 1686q15 -22 -26.5 -62t-61.5 -25l-262 197q-23 17 13 66.5t89 82t70 7.5zM858 -33q-210 0 -380 95t-267.5 264.5t-97.5 380.5q0 155 54.5 294t151 242t237.5 163t306 60q212 0 382 -94t267 -262.5t97 -380.5q0 -156 -54 -295.5t-150.5 -242.5t-238 -163.5
t-307.5 -60.5zM946 129q52 0 101.5 14.5t98.5 50t85 88t58 135t22 185.5q0 145 -46 277t-120.5 224.5t-172 147t-198.5 54.5q-52 0 -101.5 -14.5t-97.5 -49.5t-83.5 -87.5t-57.5 -135t-22 -184.5q0 -146 46 -278.5t120.5 -225t171 -147t196.5 -54.5z" />
    <glyph glyph-name="Oacute" unicode="&#xd3;" horiz-adv-x="1720" 
d="M686 1686l178 266q17 25 70 -7.5t89 -82t13 -66.5l-262 -197q-20 -15 -61.5 25t-26.5 62zM858 -33q-210 0 -380 95t-267.5 264.5t-97.5 380.5q0 155 54.5 294t151 242t237.5 163t306 60q212 0 382 -94t267 -262.5t97 -380.5q0 -156 -54 -295.5t-150.5 -242.5t-238 -163.5
t-307.5 -60.5zM946 129q52 0 101.5 14.5t98.5 50t85 88t58 135t22 185.5q0 145 -46 277t-120.5 224.5t-172 147t-198.5 54.5q-52 0 -101.5 -14.5t-97.5 -49.5t-83.5 -87.5t-57.5 -135t-22 -184.5q0 -146 46 -278.5t120.5 -225t171 -147t196.5 -54.5z" />
    <glyph glyph-name="Ocircumflex" unicode="&#xd4;" horiz-adv-x="1720" 
d="M1120 1659q15 -22 -31 -56t-67 -14l-162 150l-164 -150q-21 -20 -66 14t-30 56l191 276q8 11 68 11.5t69 -11.5zM858 -33q-210 0 -380 95t-267.5 264.5t-97.5 380.5q0 155 54.5 294t151 242t237.5 163t306 60q212 0 382 -94t267 -262.5t97 -380.5q0 -156 -54 -295.5
t-150.5 -242.5t-238 -163.5t-307.5 -60.5zM946 129q52 0 101.5 14.5t98.5 50t85 88t58 135t22 185.5q0 145 -46 277t-120.5 224.5t-172 147t-198.5 54.5q-52 0 -101.5 -14.5t-97.5 -49.5t-83.5 -87.5t-57.5 -135t-22 -184.5q0 -146 46 -278.5t120.5 -225t171 -147
t196.5 -54.5z" />
    <glyph glyph-name="Otilde" unicode="&#xd5;" horiz-adv-x="1720" 
d="M1100 1911q5 5 23.5 -4.5t34 -22.5t11.5 -18q-12 -15 -42.5 -55t-43.5 -55.5t-35.5 -38.5t-43.5 -38q-48 0 -135 36t-119 36q-23 0 -62 -20t-67 -48q-5 -5 -24.5 4.5t-35.5 23t-12 18.5q11 14 34.5 44.5t35 45t29.5 35.5t34 35t33 26q47 0 134 -36t120 -36
q23 0 63.5 20.5t67.5 47.5zM858 -33q-210 0 -380 95t-267.5 264.5t-97.5 380.5q0 155 54.5 294t151 242t237.5 163t306 60q212 0 382 -94t267 -262.5t97 -380.5q0 -156 -54 -295.5t-150.5 -242.5t-238 -163.5t-307.5 -60.5zM946 129q52 0 101.5 14.5t98.5 50t85 88t58 135
t22 185.5q0 145 -46 277t-120.5 224.5t-172 147t-198.5 54.5q-52 0 -101.5 -14.5t-97.5 -49.5t-83.5 -87.5t-57.5 -135t-22 -184.5q0 -146 46 -278.5t120.5 -225t171 -147t196.5 -54.5z" />
    <glyph glyph-name="Odieresis" unicode="&#xd6;" horiz-adv-x="1720" 
d="M635 1616q-43 0 -104.5 60t-61.5 108q0 45 62 104.5t104 59.5t104 -59.5t62 -104.5q0 -48 -61.5 -108t-104.5 -60zM1083 1616q-43 0 -104 60t-61 108q0 45 61.5 104.5t103.5 59.5t104 -59.5t62 -104.5q0 -48 -61.5 -108t-104.5 -60zM858 -33q-210 0 -380 95t-267.5 264.5
t-97.5 380.5q0 155 54.5 294t151 242t237.5 163t306 60q212 0 382 -94t267 -262.5t97 -380.5q0 -156 -54 -295.5t-150.5 -242.5t-238 -163.5t-307.5 -60.5zM946 129q52 0 101.5 14.5t98.5 50t85 88t58 135t22 185.5q0 145 -46 277t-120.5 224.5t-172 147t-198.5 54.5
q-52 0 -101.5 -14.5t-97.5 -49.5t-83.5 -87.5t-57.5 -135t-22 -184.5q0 -146 46 -278.5t120.5 -225t171 -147t196.5 -54.5z" />
    <glyph glyph-name="multiply" unicode="&#xd7;" horiz-adv-x="878" 
d="M756 909l-258 -258l258 -258l-58 -59l-258 260l-260 -260l-57 59l258 258l-258 258l59 58l258 -256l256 256z" />
    <glyph glyph-name="Oslash" unicode="&#xd8;" horiz-adv-x="1720" 
d="M1325 1321q133 -100 208 -253t75 -339q0 -156 -54 -295.5t-150.5 -242.5t-238 -163.5t-307.5 -60.5q-151 0 -287 51l-88 -153q-7 -9 -24.5 -9.5t-39.5 8.5t-41.5 20.5t-30.5 25.5t-5 24l90 156q-149 98 -234 259.5t-85 357.5q0 155 54.5 294t151 242t237.5 163t306 60
q176 0 326 -67l98 170q7 9 24.5 9.5t39.5 -9t41.5 -21t30.5 -25.5t5 -24zM412 834q0 -144 43 -272t118 -226l492 850q-135 119 -291 119q-52 0 -101.5 -14.5t-97.5 -49.5t-83.5 -87.5t-57.5 -135t-22 -184.5zM946 129q52 0 101.5 14.5t98.5 50t85 88t58 135t22 185.5
q0 260 -135 459l-486 -840q122 -92 256 -92z" />
    <glyph glyph-name="Ugrave" unicode="&#xd9;" horiz-adv-x="1689" 
d="M1020 1686q15 -22 -26.5 -62t-61.5 -25l-262 197q-23 17 13 66.5t89 82t70 7.5zM870 -33q-92 0 -179.5 19t-170 63t-143.5 109t-98 163.5t-37 219.5v628q0 90 -40 133t-122 52q-8 1 -8 21t6 39.5t14 19.5h610q8 0 14.5 -20.5t6 -38t-7.5 -21.5q-76 -9 -121 -48.5
t-45 -136.5v-639q0 -200 99.5 -299.5t256.5 -99.5q79 0 145.5 23.5t118.5 70.5t81.5 125t29.5 180v639q0 90 -45.5 131.5t-128.5 53.5q-7 1 -7 21t5.5 39.5t13.5 19.5h484q10 0 14.5 -39t-6.5 -41q-33 -4 -58.5 -13.5t-50 -29t-38 -55.5t-13.5 -87v-624q0 -186 -76 -318
t-205.5 -196t-298.5 -64z" />
    <glyph glyph-name="Uacute" unicode="&#xda;" horiz-adv-x="1689" 
d="M670 1686l178 266q17 25 70 -7.5t89 -82t13 -66.5l-262 -197q-20 -15 -61.5 25t-26.5 62zM870 -33q-92 0 -179.5 19t-170 63t-143.5 109t-98 163.5t-37 219.5v628q0 90 -40 133t-122 52q-8 1 -8 21t6 39.5t14 19.5h610q8 0 14.5 -20.5t6 -38t-7.5 -21.5
q-76 -9 -121 -48.5t-45 -136.5v-639q0 -200 99.5 -299.5t256.5 -99.5q79 0 145.5 23.5t118.5 70.5t81.5 125t29.5 180v639q0 90 -45.5 131.5t-128.5 53.5q-7 1 -7 21t5.5 39.5t13.5 19.5h484q10 0 14.5 -39t-6.5 -41q-33 -4 -58.5 -13.5t-50 -29t-38 -55.5t-13.5 -87v-624
q0 -186 -76 -318t-205.5 -196t-298.5 -64z" />
    <glyph glyph-name="Ucircumflex" unicode="&#xdb;" horiz-adv-x="1689" 
d="M1106 1659q15 -22 -31 -56t-67 -14l-162 150l-164 -150q-21 -20 -66 14t-30 56l190 276q8 11 68 11.5t69 -11.5zM870 -33q-92 0 -179.5 19t-170 63t-143.5 109t-98 163.5t-37 219.5v628q0 90 -40 133t-122 52q-8 1 -8 21t6 39.5t14 19.5h610q8 0 14.5 -20.5t6 -38
t-7.5 -21.5q-76 -9 -121 -48.5t-45 -136.5v-639q0 -200 99.5 -299.5t256.5 -99.5q79 0 145.5 23.5t118.5 70.5t81.5 125t29.5 180v639q0 90 -45.5 131.5t-128.5 53.5q-7 1 -7 21t5.5 39.5t13.5 19.5h484q10 0 14.5 -39t-6.5 -41q-33 -4 -58.5 -13.5t-50 -29t-38 -55.5
t-13.5 -87v-624q0 -186 -76 -318t-205.5 -196t-298.5 -64z" />
    <glyph glyph-name="Udieresis" unicode="&#xdc;" horiz-adv-x="1728" 
d="M690 1616q-44 0 -105 60t-61 108q0 45 61.5 104.5t104.5 59.5q42 0 104 -59.5t62 -104.5q0 -48 -61.5 -108t-104.5 -60zM1139 1616q-44 0 -105 60t-61 108q0 45 61.5 104.5t104.5 59.5q42 0 104 -59.5t62 -104.5q0 -48 -61.5 -108t-104.5 -60zM870 -33q-92 0 -179.5 19
t-170 63t-143.5 109t-98 163.5t-37 219.5v628q0 90 -40 133t-122 52q-8 1 -8 21t6 39.5t14 19.5h610q8 0 14.5 -20.5t6 -38t-7.5 -21.5q-76 -9 -121 -48.5t-45 -136.5v-639q0 -200 99.5 -299.5t256.5 -99.5q79 0 145.5 23.5t118.5 70.5t81.5 125t29.5 180v639
q0 90 -45.5 131.5t-128.5 53.5q-7 1 -7 21t5.5 39.5t13.5 19.5h484q10 0 14.5 -39t-6.5 -41q-33 -4 -58.5 -13.5t-50 -29t-38 -55.5t-13.5 -87v-624q0 -186 -76 -318t-205.5 -196t-298.5 -64z" />
    <glyph glyph-name="Yacute" unicode="&#xdd;" horiz-adv-x="1585" 
d="M709 1599q-20 -15 -61.5 25t-26.5 62l178 266q17 25 70 -7.5t89 -82t13 -66.5zM1501 1434q17 0 20 -38t-14 -42q-60 -8 -117 -55.5t-124 -151.5l-316 -492v-391q0 -52 13.5 -86.5t43.5 -53.5t62.5 -28t85.5 -16q7 -1 7 -21t-5.5 -39.5t-13.5 -19.5h-688q-8 0 -14 20.5
t-5.5 38t6.5 21.5q113 16 160 52.5t47 131.5v377l-336 504q-72 107 -122 153.5t-113 55.5q-20 4 -17 42t23 38h592q20 0 22 -38t-16 -42q-70 -10 -82 -60t47 -147l238 -356l231 356q39 60 39 105.5t-30 70t-83 31.5q-15 3 -19 23t3 38.5t18 18.5h457z" />
    <glyph glyph-name="Thorn" unicode="&#xde;" horiz-adv-x="1527" 
d="M557 1122q214 13 371.5 -1.5t270.5 -61t169.5 -132t56.5 -210.5q0 -101 -37 -178t-104.5 -124.5t-161.5 -76t-208.5 -32.5t-245.5 7q-15 1 -21 34t0 65t21 30q225 -31 311 29.5t86 245.5q0 125 -40.5 187.5t-149.5 84.5t-318 4v-729q0 -51 13.5 -86.5t39 -55t52 -28.5
t63.5 -14q8 -1 8 -21t-6 -39.5t-14 -19.5h-611q-8 0 -14 19.5t-6 39.5t8 21q86 11 126 52.5t40 131.5v905q0 90 -40 132t-126 53q-8 1 -8 21t6 39.5t14 19.5h611q8 0 14 -19.5t6 -39.5t-8 -21q-37 -5 -63.5 -14.5t-52 -28.5t-39 -55t-13.5 -87v-47z" />
    <glyph glyph-name="germandbls" unicode="&#xdf;" horiz-adv-x="1386" 
d="M1112 580q83 -39 131.5 -101t58.5 -129t-10.5 -136t-67.5 -123.5t-122.5 -89t-165.5 -34.5q-106 0 -193.5 41.5t-70.5 87.5l33 97q17 49 34 57t39 -14t47.5 -51t69.5 -55t94 -26q46 0 80 15t48 40.5t10.5 55t-33.5 62t-82 57.5l-158 76q-79 38 -126.5 98.5t-59.5 125
t5.5 131t60 118.5t112 85t153.5 33q29 0 64 -6q31 90 11 160t-77 118.5t-133.5 73.5t-158.5 25q-42 0 -75.5 -11t-64 -38t-47 -80.5t-16.5 -130.5v-932q0 -67 23 -96t71 -35q6 -3 6 -13.5t-6 -23t-14 -12.5h-478q-8 0 -14.5 12.5t-6.5 23t7 13.5q148 18 148 131v527
q0 64 -30 95.5t-126 45.5q-10 2 -10 53t10 51h94q36 0 49 13.5t13 54.5q0 131 91.5 251.5t243 194.5t316.5 74q104 0 179.5 -27t116 -74t58.5 -109t11 -135t-29.5 -148t-61.5 -152q-23 -48 -44.5 -61t-38.5 -4.5t-50 22.5t-65 14q-44 0 -74 -15t-38.5 -40t-1 -53.5t39 -59
t80.5 -53.5z" />
    <glyph glyph-name="agrave" unicode="&#xe0;" horiz-adv-x="1155" 
d="M729 1204q15 -22 -26.5 -61.5t-61.5 -24.5l-262 197q-23 17 13 66t89 81.5t70 7.5zM375 -33q-120 0 -201.5 65.5t-81.5 184.5q0 90 51.5 136.5t155.5 82.5l291 94q58 20 69 30q15 14 15 52v58q0 86 -34.5 113.5t-107.5 27.5q-64 0 -173.5 -18.5t-131.5 -20.5
q-34 -3 -37 25l-4 43q-3 29 83 65t201.5 60t195.5 24q53 0 95.5 -12.5t71 -31.5t49 -49t31.5 -58t17.5 -65t8 -64.5t1.5 -61.5v-424q0 -46 14.5 -72.5t35.5 -32t45.5 -7t43.5 2.5t29 -3q16 -8 16 -35q0 -31 -108 -70t-178 -39q-48 0 -88.5 31t-79.5 111
q-143 -93 -191.5 -117.5t-103.5 -24.5zM500 139q65 0 121.5 41.5t56.5 110.5v158q-3 -2 -6 -6t-11.5 -8t-31.5 -11l-189 -62q-25 -8 -44 -38.5t-19 -71.5q0 -50 34.5 -81.5t88.5 -31.5z" />
    <glyph glyph-name="aacute" unicode="&#xe1;" horiz-adv-x="1155" 
d="M381 1204l178 266q17 25 70 -7.5t89 -81.5t13 -66l-262 -197q-20 -15 -61.5 24.5t-26.5 61.5zM375 -33q-120 0 -201.5 65.5t-81.5 184.5q0 90 51.5 136.5t155.5 82.5l291 94q58 20 69 30q15 14 15 52v58q0 86 -34.5 113.5t-107.5 27.5q-64 0 -173.5 -18.5t-131.5 -20.5
q-34 -3 -37 25l-4 43q-3 29 83 65t201.5 60t195.5 24q53 0 95.5 -12.5t71 -31.5t49 -49t31.5 -58t17.5 -65t8 -64.5t1.5 -61.5v-424q0 -46 14.5 -72.5t35.5 -32t45.5 -7t43.5 2.5t29 -3q16 -8 16 -35q0 -31 -108 -70t-178 -39q-48 0 -88.5 31t-79.5 111
q-143 -93 -191.5 -117.5t-103.5 -24.5zM500 139q65 0 121.5 41.5t56.5 110.5v158q-3 -2 -6 -6t-11.5 -8t-31.5 -11l-189 -62q-25 -8 -44 -38.5t-19 -71.5q0 -50 34.5 -81.5t88.5 -31.5z" />
    <glyph glyph-name="acircumflex" unicode="&#xe2;" horiz-adv-x="1155" 
d="M815 1178q15 -22 -31 -56t-67 -14l-162 149l-164 -149q-21 -20 -66 14t-30 56l190 276q8 11 68.5 11.5t69.5 -11.5zM375 -33q-120 0 -201.5 65.5t-81.5 184.5q0 90 51.5 136.5t155.5 82.5l291 94q58 20 69 30q15 14 15 52v58q0 86 -34.5 113.5t-107.5 27.5
q-64 0 -173.5 -18.5t-131.5 -20.5q-34 -3 -37 25l-4 43q-3 29 83 65t201.5 60t195.5 24q53 0 95.5 -12.5t71 -31.5t49 -49t31.5 -58t17.5 -65t8 -64.5t1.5 -61.5v-424q0 -46 14.5 -72.5t35.5 -32t45.5 -7t43.5 2.5t29 -3q16 -8 16 -35q0 -31 -108 -70t-178 -39
q-48 0 -88.5 31t-79.5 111q-143 -93 -191.5 -117.5t-103.5 -24.5zM500 139q65 0 121.5 41.5t56.5 110.5v158q-3 -2 -6 -6t-11.5 -8t-31.5 -11l-189 -62q-25 -8 -44 -38.5t-19 -71.5q0 -50 34.5 -81.5t88.5 -31.5z" />
    <glyph glyph-name="atilde" unicode="&#xe3;" horiz-adv-x="1155" 
d="M793 1430q5 5 24 -4.5t35 -23t12 -18.5q-11 -14 -34.5 -44.5t-35 -45t-29.5 -35.5t-34 -35t-33 -26q-47 0 -134 36t-120 36q-23 0 -62 -20t-67 -48q-5 -5 -24 4.5t-35 22.5t-12 18q12 16 35 45.5t35 44.5t29.5 35.5t33.5 35t33 26.5q47 0 134 -36t120 -36q23 0 63.5 20.5
t65.5 47.5zM375 -33q-120 0 -201.5 65.5t-81.5 184.5q0 90 51.5 136.5t155.5 82.5l291 94q58 20 69 30q15 14 15 52v58q0 86 -34.5 113.5t-107.5 27.5q-64 0 -173.5 -18.5t-131.5 -20.5q-34 -3 -37 25l-4 43q-3 29 83 65t201.5 60t195.5 24q53 0 95.5 -12.5t71 -31.5t49 -49
t31.5 -58t17.5 -65t8 -64.5t1.5 -61.5v-424q0 -46 14.5 -72.5t35.5 -32t45.5 -7t43.5 2.5t29 -3q16 -8 16 -35q0 -31 -108 -70t-178 -39q-48 0 -88.5 31t-79.5 111q-143 -93 -191.5 -117.5t-103.5 -24.5zM500 139q65 0 121.5 41.5t56.5 110.5v158q-3 -2 -6 -6t-11.5 -8
t-31.5 -11l-189 -62q-25 -8 -44 -38.5t-19 -71.5q0 -50 34.5 -81.5t88.5 -31.5z" />
    <glyph glyph-name="adieresis" unicode="&#xe4;" horiz-adv-x="1155" 
d="M330 1135q-43 0 -104.5 60t-61.5 108q0 45 62 104t104 59t104 -59t62 -104q0 -48 -61.5 -108t-104.5 -60zM778 1135q-43 0 -104.5 60t-61.5 108q0 45 62 104t104 59t104 -59t62 -104q0 -48 -61.5 -108t-104.5 -60zM375 -33q-120 0 -201.5 65.5t-81.5 184.5
q0 90 51.5 136.5t155.5 82.5l291 94q58 20 69 30q15 14 15 52v58q0 86 -34.5 113.5t-107.5 27.5q-64 0 -173.5 -18.5t-131.5 -20.5q-34 -3 -37 25l-4 43q-3 29 83 65t201.5 60t195.5 24q53 0 95.5 -12.5t71 -31.5t49 -49t31.5 -58t17.5 -65t8 -64.5t1.5 -61.5v-424
q0 -46 14.5 -72.5t35.5 -32t45.5 -7t43.5 2.5t29 -3q16 -8 16 -35q0 -31 -108 -70t-178 -39q-48 0 -88.5 31t-79.5 111q-143 -93 -191.5 -117.5t-103.5 -24.5zM500 139q65 0 121.5 41.5t56.5 110.5v158q-3 -2 -6 -6t-11.5 -8t-31.5 -11l-189 -62q-25 -8 -44 -38.5t-19 -71.5
q0 -50 34.5 -81.5t88.5 -31.5z" />
    <glyph glyph-name="aring" unicode="&#xe5;" horiz-adv-x="1155" 
d="M555 1118q-71 0 -118.5 47t-47.5 119t47.5 119t118.5 47t118.5 -47t47.5 -119t-47.5 -119t-118.5 -47zM555 1217q28 0 48 19.5t20 47.5t-20 48t-48 20t-48 -20t-20 -48t20 -47.5t48 -19.5zM375 -33q-120 0 -201.5 65.5t-81.5 184.5q0 90 51.5 136.5t155.5 82.5l291 94
q58 20 69 30q15 14 15 52v58q0 86 -34.5 113.5t-107.5 27.5q-64 0 -173.5 -18.5t-131.5 -20.5q-34 -3 -37 25l-4 43q-3 29 83 65t201.5 60t195.5 24q53 0 95.5 -12.5t71 -31.5t49 -49t31.5 -58t17.5 -65t8 -64.5t1.5 -61.5v-424q0 -46 14.5 -72.5t35.5 -32t45.5 -7t43.5 2.5
t29 -3q16 -8 16 -35q0 -31 -108 -70t-178 -39q-48 0 -88.5 31t-79.5 111q-143 -93 -191.5 -117.5t-103.5 -24.5zM500 139q65 0 121.5 41.5t56.5 110.5v158q-3 -2 -6 -6t-11.5 -8t-31.5 -11l-189 -62q-25 -8 -44 -38.5t-19 -71.5q0 -50 34.5 -81.5t88.5 -31.5z" />
    <glyph glyph-name="ae" unicode="&#xe6;" horiz-adv-x="1683" 
d="M1550 166q8 2 17.5 -13.5t12.5 -30t-1 -18.5q-29 -12 -93.5 -47.5t-117 -62.5t-70.5 -27q-146 0 -278.5 44t-214.5 139q-117 -68 -191.5 -108t-119.5 -55t-61.5 -17.5t-49.5 -2.5q-128 0 -209.5 65t-81.5 185q0 48 15 84t44.5 61t64 42t83.5 32l313 94q50 15 65 28.5
t15 53.5v54q0 87 -33.5 114t-117.5 27q-70 0 -186 -19t-134 -20q-34 -3 -37 25l-4 43q-3 29 89.5 66t213.5 62t199 25q158 0 225 -102q137 102 322 102q88 0 155.5 -24.5t103.5 -59.5t58.5 -80.5t28.5 -78.5t6 -64q0 -43 -13 -102t-34 -97l-563 -16q16 -83 56 -147.5
t94.5 -103t116.5 -58t128 -19.5q52 0 184 27zM1153 842q-189 0 -192 -256l382 14q15 99 -38 170.5t-152 71.5zM696 270v179q-1 -1 -4.5 -5.5t-12.5 -8.5t-32 -11l-207 -62q-25 -8 -44 -38.5t-19 -71.5q0 -49 33.5 -81t81.5 -32q74 0 139 37.5t65 93.5z" />
    <glyph glyph-name="ccedilla" unicode="&#xe7;" horiz-adv-x="1032" 
d="M899 170q8 2 17.5 -14t12.5 -31t-1 -19q-25 -12 -83.5 -47.5t-106.5 -61.5t-70 -30q-23 -11 -23 -30q0 -16 14 -33.5t33.5 -34.5t39.5 -36.5t34 -48.5t14 -63q0 -66 -61 -121t-154 -55q-89 0 -143 52q-34 34 -23 57q7 15 33 14q92 -4 124 18.5t32 71.5q0 37 -16 66
t-32 52t-16 44q0 31 39 53q-71 10 -136 31.5t-127 60.5t-107.5 91t-73 127.5t-27.5 165.5q0 77 19.5 151t63.5 145t108.5 125t162 86.5t216.5 32.5q48 0 96.5 -7t89 -20t62.5 -33t16 -44l-23 -82q-14 -56 -35.5 -71.5t-53.5 0t-67 40t-89 47.5t-107 23q-95 0 -143 -76
t-48 -191q0 -97 35 -182t88 -139t112 -84.5t110 -30.5q54 0 194 31z" />
    <glyph glyph-name="egrave" unicode="&#xe8;" horiz-adv-x="1069" 
d="M383 1315q-23 17 13 66t89 81.5t70 7.5l178 -266q15 -22 -26.5 -61.5t-61.5 -24.5zM938 166q8 2 17 -13.5t11.5 -30t-1.5 -18.5q-29 -12 -93 -47.5t-116.5 -62.5t-71.5 -27q-86 0 -166 14t-159 48.5t-137 87.5t-94 137t-36 190q0 78 19 153.5t61 147t101.5 125.5
t148 86.5t194.5 32.5q88 0 155 -24.5t102.5 -59.5t58 -80t29 -79t6.5 -64q0 -42 -13 -101.5t-32 -97.5l-564 -16q16 -83 56 -147.5t94.5 -103t116.5 -58t127 -19.5q51 0 186 27zM541 842q-189 0 -193 -254l383 12q15 99 -38.5 170.5t-151.5 71.5z" />
    <glyph glyph-name="eacute" unicode="&#xe9;" horiz-adv-x="1069" 
d="M473 1118q-20 -15 -61.5 24.5t-26.5 61.5l178 266q17 25 70 -7.5t89 -81.5t13 -66zM938 166q8 2 17 -13.5t11.5 -30t-1.5 -18.5q-29 -12 -93 -47.5t-116.5 -62.5t-71.5 -27q-86 0 -166 14t-159 48.5t-137 87.5t-94 137t-36 190q0 78 19 153.5t61 147t101.5 125.5
t148 86.5t194.5 32.5q88 0 155 -24.5t102.5 -59.5t58 -80t29 -79t6.5 -64q0 -42 -13 -101.5t-32 -97.5l-564 -16q16 -83 56 -147.5t94.5 -103t116.5 -58t127 -19.5q51 0 186 27zM541 842q-189 0 -193 -254l383 12q15 99 -38.5 170.5t-151.5 71.5z" />
    <glyph glyph-name="ecircumflex" unicode="&#xea;" horiz-adv-x="1069" 
d="M395 1108q-21 -20 -66 14t-30 56l190 276q8 11 68.5 11.5t69.5 -11.5l192 -276q15 -22 -31 -56t-67 -14l-162 149zM938 166q8 2 17 -13.5t11.5 -30t-1.5 -18.5q-29 -12 -93 -47.5t-116.5 -62.5t-71.5 -27q-86 0 -166 14t-159 48.5t-137 87.5t-94 137t-36 190
q0 78 19 153.5t61 147t101.5 125.5t148 86.5t194.5 32.5q88 0 155 -24.5t102.5 -59.5t58 -80t29 -79t6.5 -64q0 -42 -13 -101.5t-32 -97.5l-564 -16q16 -83 56 -147.5t94.5 -103t116.5 -58t127 -19.5q51 0 186 27zM541 842q-189 0 -193 -254l383 12q15 99 -38.5 170.5
t-151.5 71.5z" />
    <glyph glyph-name="edieresis" unicode="&#xeb;" horiz-adv-x="1069" 
d="M334 1135q-43 0 -104.5 60t-61.5 108q0 45 62 104t104 59t104 -59t62 -104q0 -48 -61.5 -108t-104.5 -60zM782 1135q-43 0 -104.5 60t-61.5 108q0 45 62 104t104 59t104 -59t62 -104q0 -48 -61.5 -108t-104.5 -60zM938 166q8 2 17 -13.5t11.5 -30t-1.5 -18.5
q-29 -12 -93 -47.5t-116.5 -62.5t-71.5 -27q-86 0 -166 14t-159 48.5t-137 87.5t-94 137t-36 190q0 78 19 153.5t61 147t101.5 125.5t148 86.5t194.5 32.5q88 0 155 -24.5t102.5 -59.5t58 -80t29 -79t6.5 -64q0 -42 -13 -101.5t-32 -97.5l-564 -16q16 -83 56 -147.5
t94.5 -103t116.5 -58t127 -19.5q51 0 186 27zM541 842q-189 0 -193 -254l383 12q15 99 -38.5 170.5t-151.5 71.5z" />
    <glyph glyph-name="igrave" unicode="&#xec;" horiz-adv-x="679" 
d="M520 1204q15 -22 -26.5 -61.5t-61.5 -24.5l-262 197q-23 17 13 66t88.5 81.5t68.5 7.5zM84 0q-8 0 -14.5 18t-6.5 34t7 20q141 18 141 155v428q0 94 -28 127.5t-107 42.5q-13 2 -8.5 33.5t16.5 34.5l399 92q16 2 22.5 -7.5t2.5 -29.5q-33 -156 -33 -321v-400
q0 -137 137 -155q6 -4 6 -20t-6 -34t-14 -18h-514z" />
    <glyph glyph-name="iacute" unicode="&#xed;" horiz-adv-x="679" 
d="M172 1204l178 266q17 25 70 -7.5t89 -81.5t13 -66l-262 -197q-20 -15 -61.5 24.5t-26.5 61.5zM84 0q-8 0 -14.5 18t-6.5 34t7 20q141 18 141 155v428q0 94 -28 127.5t-107 42.5q-13 2 -8.5 33.5t16.5 34.5l399 92q16 2 22.5 -7.5t2.5 -29.5q-33 -156 -33 -321v-400
q0 -137 137 -155q6 -4 6 -20t-6 -34t-14 -18h-514z" />
    <glyph glyph-name="icircumflex" unicode="&#xee;" horiz-adv-x="679" 
d="M606 1178q15 -22 -31 -56t-67 -14l-162 149l-164 -149q-21 -20 -66 14t-30 56l190 276q8 11 68.5 11.5t69.5 -11.5zM84 0q-8 0 -14.5 18t-6.5 34t7 20q141 18 141 155v428q0 94 -28 127.5t-107 42.5q-13 2 -8.5 33.5t16.5 34.5l399 92q16 2 22.5 -7.5t2.5 -29.5
q-33 -156 -33 -321v-400q0 -137 137 -155q6 -4 6 -20t-6 -34t-14 -18h-514z" />
    <glyph glyph-name="idieresis" unicode="&#xef;" horiz-adv-x="679" 
d="M121 1135q-43 0 -104.5 60t-61.5 108q0 45 62 104t104 59t104 -59t62 -104q0 -48 -61.5 -108t-104.5 -60zM569 1135q-43 0 -104.5 60t-61.5 108q0 45 62 104t104 59t104 -59t62 -104q0 -48 -61.5 -108t-104.5 -60zM84 0q-8 0 -14.5 18t-6.5 34t7 20q141 18 141 155v428
q0 94 -28 127.5t-107 42.5q-13 2 -8.5 33.5t16.5 34.5l399 92q16 2 22.5 -7.5t2.5 -29.5q-33 -156 -33 -321v-400q0 -137 137 -155q6 -4 6 -20t-6 -34t-14 -18h-514z" />
    <glyph glyph-name="eth" unicode="&#xf0;" horiz-adv-x="1316" 
d="M975 1219q110 -119 169.5 -275.5t59.5 -337.5q0 -299 -154 -469t-401 -170q-84 0 -162 20t-146 61.5t-118.5 101t-80 143.5t-29.5 184q0 102 31 186t78.5 136.5t108.5 88t117.5 50t108.5 14.5q84 0 175 -39t167 -122q-16 184 -104 323l-88 -51q-15 -8 -34.5 12t-25 43.5
t7.5 34.5l76 43q-127 140 -344 199q-25 7 2 33q34 33 84 40q16 2 29 0q225 -38 393 -176l242 140q15 8 34 -12.5t25 -44t-6 -34.5zM625 100q130 0 205 106.5t75 266.5q0 154 -70 234.5t-169 80.5q-119 0 -192 -111.5t-73 -279.5q0 -82 19 -142.5t52.5 -92.5t71 -47t81.5 -15
z" />
    <glyph glyph-name="ntilde" unicode="&#xf1;" horiz-adv-x="1325" 
d="M854 1430q5 5 24.5 -4.5t35.5 -23t12 -18.5q-11 -14 -34.5 -44.5t-35 -45t-29.5 -35.5t-34 -35t-33 -26q-48 0 -135 36t-119 36q-23 0 -62 -20t-67 -48q-5 -5 -24.5 4.5t-35.5 22.5t-12 18q12 16 35 45.5t35 44.5t29.5 35.5t33.5 35t33 26.5q47 0 134 -36t120 -36
q23 0 63.5 20.5t65.5 47.5zM84 0q-8 0 -14.5 18t-6.5 34t7 20q139 18 139 155v471q0 69 -33 96t-104 35q-12 2 -8 35t16 35l369 92q18 3 26 -7.5t8 -29.5q0 -38 12 -53t37 -8q29 10 95 38t118.5 43t106.5 15q59 0 106 -17t76 -44.5t48 -65t26.5 -74.5t7.5 -77v-484
q0 -136 139 -155q7 -4 7 -20t-6 -34t-13 -18h-489q-9 0 -14.5 35t3.5 37q60 9 84.5 44t24.5 111v361q0 126 -44 171.5t-155 45.5q-68 0 -124 -19.5t-56 -56.5v-502q0 -71 30.5 -108.5t98.5 -46.5q6 -4 6 -20t-6 -34t-14 -18h-504z" />
    <glyph glyph-name="ograve" unicode="&#xf2;" horiz-adv-x="1206" 
d="M776 1204q15 -22 -26.5 -61.5t-61.5 -24.5l-262 197q-23 17 13 66t89 81.5t70 7.5zM598 -33q-217 0 -361.5 139t-144.5 361q0 224 146 373t370 149q217 0 361.5 -139t144.5 -363q0 -222 -145 -371t-371 -149zM662 109q37 0 68 12.5t60 40.5t45.5 83.5t16.5 133.5
q0 202 -86.5 335.5t-222.5 133.5q-36 0 -67 -12t-60 -40.5t-45.5 -83t-16.5 -130.5q0 -204 86.5 -338.5t221.5 -134.5z" />
    <glyph glyph-name="oacute" unicode="&#xf3;" horiz-adv-x="1206" 
d="M428 1204l178 266q17 25 70 -7.5t89 -81.5t13 -66l-262 -197q-20 -15 -61.5 24.5t-26.5 61.5zM598 -33q-217 0 -361.5 139t-144.5 361q0 224 146 373t370 149q217 0 361.5 -139t144.5 -363q0 -222 -145 -371t-371 -149zM662 109q37 0 68 12.5t60 40.5t45.5 83.5
t16.5 133.5q0 202 -86.5 335.5t-222.5 133.5q-36 0 -67 -12t-60 -40.5t-45.5 -83t-16.5 -130.5q0 -204 86.5 -338.5t221.5 -134.5z" />
    <glyph glyph-name="ocircumflex" unicode="&#xf4;" horiz-adv-x="1206" 
d="M862 1178q15 -22 -31 -56t-67 -14l-162 149l-164 -149q-21 -20 -66 14t-30 56l190 276q8 11 68.5 11.5t69.5 -11.5zM598 -33q-217 0 -361.5 139t-144.5 361q0 224 146 373t370 149q217 0 361.5 -139t144.5 -363q0 -222 -145 -371t-371 -149zM662 109q37 0 68 12.5
t60 40.5t45.5 83.5t16.5 133.5q0 202 -86.5 335.5t-222.5 133.5q-36 0 -67 -12t-60 -40.5t-45.5 -83t-16.5 -130.5q0 -204 86.5 -338.5t221.5 -134.5z" />
    <glyph glyph-name="otilde" unicode="&#xf5;" horiz-adv-x="1206" 
d="M840 1430q5 5 24 -4.5t35 -23t12 -18.5q-11 -14 -34.5 -44.5t-35 -45t-29.5 -35.5t-34 -35t-33 -26q-47 0 -134 36t-119 36q-23 0 -62.5 -20t-67.5 -48q-5 -5 -24 4.5t-35 22.5t-12 18q12 16 35 45.5t35 44.5t29.5 35.5t33.5 35t33 26.5q47 0 134 -36t120 -36
q23 0 63.5 20.5t65.5 47.5zM598 -33q-217 0 -361.5 139t-144.5 361q0 224 146 373t370 149q217 0 361.5 -139t144.5 -363q0 -222 -145 -371t-371 -149zM662 109q37 0 68 12.5t60 40.5t45.5 83.5t16.5 133.5q0 202 -86.5 335.5t-222.5 133.5q-36 0 -67 -12t-60 -40.5
t-45.5 -83t-16.5 -130.5q0 -204 86.5 -338.5t221.5 -134.5z" />
    <glyph glyph-name="odieresis" unicode="&#xf6;" horiz-adv-x="1206" 
d="M377 1135q-43 0 -104.5 60t-61.5 108q0 45 62 104t104 59t104 -59t62 -104q0 -48 -61.5 -108t-104.5 -60zM825 1135q-43 0 -104.5 60t-61.5 108q0 45 62 104t104 59t104 -59t62 -104q0 -48 -61.5 -108t-104.5 -60zM598 -33q-217 0 -361.5 139t-144.5 361q0 224 146 373
t370 149q217 0 361.5 -139t144.5 -363q0 -222 -145 -371t-371 -149zM662 109q37 0 68 12.5t60 40.5t45.5 83.5t16.5 133.5q0 202 -86.5 335.5t-222.5 133.5q-36 0 -67 -12t-60 -40.5t-45.5 -83t-16.5 -130.5q0 -204 86.5 -338.5t221.5 -134.5z" />
    <glyph glyph-name="divide" unicode="&#xf7;" horiz-adv-x="1017" 
d="M508 915q-31 0 -51.5 20.5t-20.5 51.5q0 29 20.5 49.5t51.5 20.5t51.5 -20.5t20.5 -49.5q0 -31 -20.5 -51.5t-51.5 -20.5zM895 692v-82h-772v82h772zM508 244q-31 0 -51.5 20t-20.5 51q0 29 20.5 49.5t51.5 20.5t51.5 -20.5t20.5 -49.5q0 -31 -20.5 -51t-51.5 -20z" />
    <glyph glyph-name="oslash" unicode="&#xf8;" horiz-adv-x="1206" 
d="M909 899q96 -66 150.5 -172.5t54.5 -239.5q0 -222 -145 -371t-371 -149q-109 0 -207 39l-78 -135q-6 -10 -19 -11t-27 5.5t-26.5 17t-17.5 23t0 22.5l74 127q-96 66 -150.5 173t-54.5 239q0 224 146 373t370 149q111 0 209 -39l78 135q6 10 19 11t27 -5.5t26.5 -17
t17.5 -23t0 -22.5zM354 582q0 -180 68 -310l293 504q-75 72 -172 72q-36 0 -67 -12t-60 -40.5t-45.5 -83t-16.5 -130.5zM662 109q37 0 68 12.5t60 40.5t45.5 83.5t16.5 133.5q0 176 -68 303l-292 -504q72 -69 170 -69z" />
    <glyph glyph-name="ugrave" unicode="&#xf9;" horiz-adv-x="1331" 
d="M829 1204q15 -22 -26.5 -61.5t-61.5 -24.5l-262 197q-23 17 13 66t89 81.5t70 7.5zM449 -33q-63 0 -111.5 24t-76 64t-41 87.5t-13.5 99.5v446q0 36 -16 63.5t-40.5 42.5t-44 22.5t-36.5 10.5q-9 1 -6.5 33t14.5 33l362 96q19 6 33.5 -7t9.5 -30q-11 -42 -14 -84
t-0.5 -96.5t2.5 -60.5v-383q0 -39 1.5 -62.5t9 -50t21 -40t38 -23t59.5 -9.5q40 0 78 5.5t81 19t69 44t26 73.5v403q0 36 -15.5 63.5t-40 42.5t-44 22.5t-37.5 10.5q-9 1 -6.5 33t14.5 33l362 96q19 6 33.5 -7t9.5 -30q-11 -42 -14 -86t-0.5 -101.5t2.5 -62.5v-479
q0 -47 14.5 -74t35.5 -32t45 -6.5t42.5 3t28.5 -2.5q16 -8 16 -35q0 -31 -107 -70t-179 -39q-21 0 -46.5 22.5t-45 45.5t-50.5 37t-63 -4q-225 -101 -360 -101z" />
    <glyph glyph-name="uacute" unicode="&#xfa;" horiz-adv-x="1331" 
d="M481 1204l178 266q17 25 70 -7.5t89 -81.5t13 -66l-262 -197q-20 -15 -61.5 24.5t-26.5 61.5zM449 -33q-63 0 -111.5 24t-76 64t-41 87.5t-13.5 99.5v446q0 36 -16 63.5t-40.5 42.5t-44 22.5t-36.5 10.5q-9 1 -6.5 33t14.5 33l362 96q19 6 33.5 -7t9.5 -30
q-11 -42 -14 -84t-0.5 -96.5t2.5 -60.5v-383q0 -39 1.5 -62.5t9 -50t21 -40t38 -23t59.5 -9.5q40 0 78 5.5t81 19t69 44t26 73.5v403q0 36 -15.5 63.5t-40 42.5t-44 22.5t-37.5 10.5q-9 1 -6.5 33t14.5 33l362 96q19 6 33.5 -7t9.5 -30q-11 -42 -14 -86t-0.5 -101.5
t2.5 -62.5v-479q0 -47 14.5 -74t35.5 -32t45 -6.5t42.5 3t28.5 -2.5q16 -8 16 -35q0 -31 -107 -70t-179 -39q-21 0 -46.5 22.5t-45 45.5t-50.5 37t-63 -4q-225 -101 -360 -101z" />
    <glyph glyph-name="ucircumflex" unicode="&#xfb;" horiz-adv-x="1331" 
d="M915 1178q15 -22 -31 -56t-67 -14l-162 149l-163 -149q-21 -20 -66.5 14t-30.5 56l191 276q8 11 68 11.5t69 -11.5zM449 -33q-63 0 -111.5 24t-76 64t-41 87.5t-13.5 99.5v446q0 36 -16 63.5t-40.5 42.5t-44 22.5t-36.5 10.5q-9 1 -6.5 33t14.5 33l362 96q19 6 33.5 -7
t9.5 -30q-11 -42 -14 -84t-0.5 -96.5t2.5 -60.5v-383q0 -39 1.5 -62.5t9 -50t21 -40t38 -23t59.5 -9.5q40 0 78 5.5t81 19t69 44t26 73.5v403q0 36 -15.5 63.5t-40 42.5t-44 22.5t-37.5 10.5q-9 1 -6.5 33t14.5 33l362 96q19 6 33.5 -7t9.5 -30q-11 -42 -14 -86t-0.5 -101.5
t2.5 -62.5v-479q0 -47 14.5 -74t35.5 -32t45 -6.5t42.5 3t28.5 -2.5q16 -8 16 -35q0 -31 -107 -70t-179 -39q-21 0 -46.5 22.5t-45 45.5t-50.5 37t-63 -4q-225 -101 -360 -101z" />
    <glyph glyph-name="udieresis" unicode="&#xfc;" horiz-adv-x="1331" 
d="M430 1135q-43 0 -104.5 60t-61.5 108q0 45 62 104t104 59t104 -59t62 -104q0 -48 -61.5 -108t-104.5 -60zM879 1135q-43 0 -104.5 60t-61.5 108q0 45 62 104t104 59t103.5 -59t61.5 -104q0 -48 -61 -108t-104 -60zM449 -33q-63 0 -111.5 24t-76 64t-41 87.5t-13.5 99.5
v446q0 36 -16 63.5t-40.5 42.5t-44 22.5t-36.5 10.5q-9 1 -6.5 33t14.5 33l362 96q19 6 33.5 -7t9.5 -30q-11 -42 -14 -84t-0.5 -96.5t2.5 -60.5v-383q0 -39 1.5 -62.5t9 -50t21 -40t38 -23t59.5 -9.5q40 0 78 5.5t81 19t69 44t26 73.5v403q0 36 -15.5 63.5t-40 42.5
t-44 22.5t-37.5 10.5q-9 1 -6.5 33t14.5 33l362 96q19 6 33.5 -7t9.5 -30q-11 -42 -14 -86t-0.5 -101.5t2.5 -62.5v-479q0 -47 14.5 -74t35.5 -32t45 -6.5t42.5 3t28.5 -2.5q16 -8 16 -35q0 -31 -107 -70t-179 -39q-21 0 -46.5 22.5t-45 45.5t-50.5 37t-63 -4
q-225 -101 -360 -101z" />
    <glyph glyph-name="yacute" unicode="&#xfd;" horiz-adv-x="1347" 
d="M637 1118q-20 -15 -60.5 24.5t-25.5 61.5l178 266q17 25 69.5 -7.5t88 -81.5t12.5 -66zM1130 952q21 0 22 -40t-17 -44q-93 -26 -174 -209l-396 -888q-24 -52 -63.5 -88t-83.5 -52t-79 -22t-67 -6q-83 0 -131 39t-75 110q-14 41 -13 56.5t18 18.5t51 -3q61 -6 103 -6
q74 0 128.5 13.5t104 53t79.5 107.5l-295 667q-46 105 -87.5 153t-86.5 56q-17 3 -17 43.5t19 40.5h460q23 0 24.5 -36t-19.5 -48q-28 -17 -39 -38.5t-4.5 -64t36.5 -106.5l150 -340l145 336q45 104 35 155t-78 58q-17 2 -17 43t19 41h348z" />
    <glyph glyph-name="thorn" unicode="&#xfe;" horiz-adv-x="1314" 
d="M104 -420q-8 0 -14.5 18t-6.5 34t7 20q139 18 139 135v1399q0 94 -28 126.5t-107 43.5q-12 2 -7.5 33t15.5 34l400 86q15 3 21.5 -6.5t2.5 -29.5q-32 -151 -32 -322v-107q0 -59 9.5 -88t25 -34t42.5 4t54.5 23.5t68.5 27t78 12.5q206 0 328.5 -116.5t122.5 -337.5
q0 -84 -17 -163t-57.5 -153.5t-100 -129.5t-152 -88.5t-206.5 -33.5q-60 0 -100 9t-56 19t-40 30v-238q0 -36 13.5 -59.5t45 -38t65 -22t91.5 -15.5q6 -4 6 -20t-6.5 -34t-14.5 -18h-590zM727 121q65 0 109 22.5t67 66.5t32 96.5t9 125.5q0 197 -64.5 302.5t-179.5 105.5
q-60 0 -133 -56.5t-73 -111.5v-314q0 -103 62 -170t171 -67z" />
    <glyph glyph-name="ydieresis" unicode="&#xff;" horiz-adv-x="1347" 
d="M549 1135q-43 0 -104.5 60t-61.5 108q0 45 62 104t104 59q44 0 105 -59t61 -104q0 -48 -61 -108t-105 -60zM997 1135q-43 0 -104.5 60t-61.5 108q0 45 62 104t104 59q44 0 105 -59t61 -104q0 -48 -61 -108t-105 -60zM1130 952q21 0 22 -40t-17 -44q-93 -26 -174 -209
l-396 -888q-24 -52 -63.5 -88t-83.5 -52t-79 -22t-67 -6q-83 0 -131 39t-75 110q-14 41 -13 56.5t18 18.5t51 -3q61 -6 103 -6q74 0 128.5 13.5t104 53t79.5 107.5l-295 667q-46 105 -87.5 153t-86.5 56q-17 3 -17 43.5t19 40.5h460q23 0 24.5 -36t-19.5 -48
q-28 -17 -39 -38.5t-4.5 -64t36.5 -106.5l150 -340l145 336q45 104 35 155t-78 58q-17 2 -17 43t19 41h348z" />
    <glyph glyph-name="Amacron" unicode="&#x100;" horiz-adv-x="1640" 
d="M1137 1833q24 0 9 -50q-16 -53 -45 -74q-8 -7 -16 -7h-532q-24 0 -11 48q15 52 45 75q10 8 19 8h531zM1573 78q20 -3 17.5 -40.5t-21.5 -37.5h-592q-21 0 -21.5 37.5t15.5 40.5q23 4 37 8.5t33 13.5t27.5 23.5t14 36t-2 53.5t-25.5 74l-11 18q-14 38 -33.5 49t-62.5 11
h-401q-48 0 -68 -11t-37 -49l-6 -18q-20 -48 -24 -84t4 -57.5t28.5 -36t42.5 -21t54 -10.5q14 -2 17.5 -21.5t-3.5 -38t-20 -18.5h-461q-17 0 -20 37.5t14 40.5q34 6 56.5 15t48 30.5t49 61t50.5 102.5l346 805q61 135 83 204t22 127q0 9 71.5 25t75.5 6l500 -1165
q51 -118 94 -159.5t109 -51.5zM911 496q23 0 35 7t4 27l-205 496l-206 -496q-8 -20 4 -27t37 -7h331z" />
    <glyph glyph-name="amacron" unicode="&#x101;" horiz-adv-x="1155" 
d="M848 1352q24 0 9 -50q-15 -53 -44 -74q-8 -7 -16 -7h-533q-24 0 -11 48q15 52 45 75q10 8 19 8h531zM375 -33q-120 0 -201.5 65.5t-81.5 184.5q0 90 51.5 136.5t155.5 82.5l291 94q58 20 69 30q15 14 15 52v58q0 86 -34.5 113.5t-107.5 27.5q-64 0 -173.5 -18.5
t-131.5 -20.5q-34 -3 -37 25l-4 43q-3 29 83 65t201.5 60t195.5 24q53 0 95.5 -12.5t71 -31.5t49 -49t31.5 -58t17.5 -65t8 -64.5t1.5 -61.5v-424q0 -46 14.5 -72.5t35.5 -32t45.5 -7t43.5 2.5t29 -3q16 -8 16 -35q0 -31 -108 -70t-178 -39q-48 0 -88.5 31t-79.5 111
q-143 -93 -191.5 -117.5t-103.5 -24.5zM500 139q65 0 121.5 41.5t56.5 110.5v158q-3 -2 -6 -6t-11.5 -8t-31.5 -11l-189 -62q-25 -8 -44 -38.5t-19 -71.5q0 -50 34.5 -81.5t88.5 -31.5z" />
    <glyph glyph-name="Abreve" unicode="&#x102;" horiz-adv-x="1640" 
d="M1098 1950q14 0 21 -1.5t14.5 -8.5t10.5 -22.5t3 -41.5q0 -41 -16.5 -83.5t-50 -82.5t-95 -65t-141.5 -25t-141.5 25t-95 65t-50 82.5t-16.5 83.5q0 34 6.5 51t15 20t27.5 3q30 0 44.5 -3.5t17.5 -11t2.5 -18t0.5 -25.5q6 -51 57 -83.5t132 -32.5t131.5 32.5t56.5 83.5
q1 15 0.5 25.5t3 18t18 11t44.5 3.5zM1573 78q20 -3 17.5 -40.5t-21.5 -37.5h-592q-21 0 -21.5 37.5t15.5 40.5q23 4 37 8.5t33 13.5t27.5 23.5t14 36t-2 53.5t-25.5 74l-11 18q-14 38 -33.5 49t-62.5 11h-401q-48 0 -68 -11t-37 -49l-6 -18q-20 -48 -24 -84t4 -57.5
t28.5 -36t42.5 -21t54 -10.5q14 -2 17.5 -21.5t-3.5 -38t-20 -18.5h-461q-17 0 -20 37.5t14 40.5q34 6 56.5 15t48 30.5t49 61t50.5 102.5l346 805q61 135 83 204t22 127q0 9 71.5 25t75.5 6l500 -1165q51 -118 94 -159.5t109 -51.5zM911 496q23 0 35 7t4 27l-205 496
l-206 -496q-8 -20 4 -27t37 -7h331z" />
    <glyph glyph-name="abreve" unicode="&#x103;" horiz-adv-x="1155" 
d="M809 1468q19 0 27.5 -3t15 -19.5t6.5 -50.5q0 -41 -16.5 -83.5t-50 -82.5t-95 -65t-141.5 -25t-141.5 25t-95 65t-50 82.5t-16.5 83.5q0 34 6.5 50.5t15 19.5t27.5 3q30 0 44.5 -3.5t18 -10.5t3 -17.5t0.5 -25.5q6 -51 56.5 -84t131.5 -33t131.5 33t56.5 84
q1 15 0.5 25.5t3 17.5t18 10.5t44.5 3.5zM375 -33q-120 0 -201.5 65.5t-81.5 184.5q0 90 51.5 136.5t155.5 82.5l291 94q58 20 69 30q15 14 15 52v58q0 86 -34.5 113.5t-107.5 27.5q-64 0 -173.5 -18.5t-131.5 -20.5q-34 -3 -37 25l-4 43q-3 29 83 65t201.5 60t195.5 24
q53 0 95.5 -12.5t71 -31.5t49 -49t31.5 -58t17.5 -65t8 -64.5t1.5 -61.5v-424q0 -46 14.5 -72.5t35.5 -32t45.5 -7t43.5 2.5t29 -3q16 -8 16 -35q0 -31 -108 -70t-178 -39q-48 0 -88.5 31t-79.5 111q-143 -93 -191.5 -117.5t-103.5 -24.5zM500 139q65 0 121.5 41.5
t56.5 110.5v158q-3 -2 -6 -6t-11.5 -8t-31.5 -11l-189 -62q-25 -8 -44 -38.5t-19 -71.5q0 -50 34.5 -81.5t88.5 -31.5z" />
    <glyph glyph-name="Aogonek" unicode="&#x104;" horiz-adv-x="1665" 
d="M1077 -469q-41 0 -87.5 10t-97 32.5t-83.5 68t-33 106.5q0 42 16.5 80t42.5 65.5t58 56t63 53.5t56.5 57.5t40 67t12.5 83.5t-25 106l4 -12q-15 37 -34 48.5t-62 11.5h-401q-48 0 -68 -11t-37 -49l-6 -18q-18 -48 -21 -84t4.5 -58t27 -36t41 -20.5t53.5 -10.5
q14 -2 17.5 -21.5t-3.5 -38t-20 -18.5h-461q-17 0 -20 37.5t14 40.5q34 6 56.5 15t48 30.5t49 61t50.5 102.5l346 805q62 144 83.5 210t21.5 121q0 9 71.5 25t75.5 6l500 -1165q52 -117 104 -160.5t123 -48.5q13 -1 16.5 -21t-3 -39.5t-19.5 -19.5h-174q-173 0 -277 -70.5
t-104 -162.5q0 -48 32 -75.5t83 -27.5q47 0 86.5 31.5t50.5 62.5q6 18 33 6q29 -13 33 -40q2 -11 -2 -21q-8 -20 -29 -47t-54.5 -56t-84.5 -49t-107 -20zM580 496h331q23 0 35 7t4 27l-205 496l-206 -496q-8 -20 4 -27t37 -7z" />
    <glyph glyph-name="aogonek" unicode="&#x105;" horiz-adv-x="1155" 
d="M961 -12q-15 -5 -47.5 -16.5t-52 -19t-50 -20t-49.5 -23.5t-41.5 -27t-35 -32.5t-21.5 -38t-9 -44.5q0 -45 27.5 -74t77.5 -29q54 0 95 31t52 63q6 18 33 6q29 -13 33 -40q2 -11 -2 -21q-6 -16 -20 -36t-40 -44.5t-58.5 -44.5t-79.5 -33.5t-99 -13.5q-35 0 -69.5 5.5
t-70.5 19t-63 34.5t-44 55.5t-17 78.5q0 47 22.5 88t52.5 67t76 50t75.5 35t70 23.5t41.5 12.5q-36 27 -78 109q-143 -93 -191.5 -117.5t-103.5 -24.5q-120 0 -201.5 65.5t-81.5 184.5q0 90 51.5 136.5t155.5 82.5l291 94q58 20 69 30q15 14 15 52v58q0 86 -34.5 113.5
t-107.5 27.5q-64 0 -173.5 -18.5t-131.5 -20.5q-34 -3 -37 25l-4 43q-3 29 83 65t201.5 60t195.5 24q53 0 95.5 -12.5t71 -31.5t49 -49t31.5 -58t17.5 -65t8 -64.5t1.5 -61.5v-424q0 -46 14.5 -72.5t35.5 -32t45.5 -7t43.5 2.5t29 -3q16 -8 16 -35q0 -19 -48.5 -44.5
t-114.5 -43.5zM678 291v158q-3 -2 -6 -6t-11.5 -8t-31.5 -11l-189 -62q-25 -8 -44 -38.5t-19 -71.5q0 -50 34.5 -81.5t88.5 -31.5q65 0 121.5 41.5t56.5 110.5z" />
    <glyph glyph-name="Cacute" unicode="&#x106;" horiz-adv-x="1462" 
d="M639 1686l178 266q17 25 70 -7.5t89 -82t13 -66.5l-262 -197q-20 -15 -61.5 25t-26.5 62zM913 -33q-108 0 -216 24t-214 80t-187.5 136.5t-132 204.5t-50.5 274q0 110 25.5 216t86 209.5t150 181t228 125.5t308.5 48q118 0 220.5 -21.5t157 -56t42.5 -69.5l-31 -88
q-22 -63 -44.5 -86.5t-46.5 -16.5t-64.5 30.5t-86 51t-124 49t-166.5 21.5q-104 0 -181.5 -33t-123.5 -95t-68 -143t-22 -184q0 -134 39 -244t101 -180t143 -118.5t161 -69t158 -20.5q48 0 164.5 22.5t163.5 54.5q12 8 38 -22t17 -43q-40 -60 -136.5 -118t-183 -89
t-125.5 -31z" />
    <glyph glyph-name="cacute" unicode="&#x107;" horiz-adv-x="1032" 
d="M397 1204l178 266q17 25 70.5 -7.5t89.5 -81.5t13 -66l-263 -197q-20 -15 -61.5 24.5t-26.5 61.5zM662 -33q-77 0 -154 15.5t-153 52t-133.5 90.5t-93.5 137.5t-36 186.5q0 77 19.5 151t63.5 145t108.5 125t162 86.5t216.5 32.5q48 0 96.5 -7t89 -20t62.5 -33t16 -44
l-23 -82q-14 -56 -35.5 -71.5t-53.5 0t-67 40t-89 47.5t-107 23q-95 0 -143 -76t-48 -191q0 -97 35 -182t88 -139t112 -84.5t110 -30.5q54 0 194 31q8 2 17.5 -14t12.5 -31t-1 -19q-25 -13 -87.5 -50.5t-111 -63t-67.5 -25.5z" />
    <glyph glyph-name="Cdotaccent" unicode="&#x10a;" horiz-adv-x="1462" 
d="M813 1616q-43 0 -104.5 60t-61.5 108q0 45 62 104.5t104 59.5t104 -59.5t62 -104.5q0 -48 -61.5 -108t-104.5 -60zM913 -33q-108 0 -216 24t-214 80t-187.5 136.5t-132 204.5t-50.5 274q0 110 25.5 216t86 209.5t150 181t228 125.5t308.5 48q118 0 220.5 -21.5t157 -56
t42.5 -69.5l-31 -88q-22 -63 -44.5 -86.5t-46.5 -16.5t-64.5 30.5t-86 51t-124 49t-166.5 21.5q-104 0 -181.5 -33t-123.5 -95t-68 -143t-22 -184q0 -134 39 -244t101 -180t143 -118.5t161 -69t158 -20.5q48 0 164.5 22.5t163.5 54.5q12 8 38 -22t17 -43
q-40 -60 -136.5 -118t-183 -89t-125.5 -31z" />
    <glyph glyph-name="cdotaccent" unicode="&#x10b;" horiz-adv-x="1032" 
d="M571 1135q-43 0 -104 60t-61 108q0 45 61.5 104t103.5 59t104 -59t62 -104q0 -48 -61.5 -108t-104.5 -60zM662 -33q-77 0 -154 15.5t-153 52t-133.5 90.5t-93.5 137.5t-36 186.5q0 77 19.5 151t63.5 145t108.5 125t162 86.5t216.5 32.5q48 0 96.5 -7t89 -20t62.5 -33
t16 -44l-23 -82q-14 -56 -35.5 -71.5t-53.5 0t-67 40t-89 47.5t-107 23q-95 0 -143 -76t-48 -191q0 -97 35 -182t88 -139t112 -84.5t110 -30.5q54 0 194 31q8 2 17.5 -14t12.5 -31t-1 -19q-25 -13 -87.5 -50.5t-111 -63t-67.5 -25.5z" />
    <glyph glyph-name="Ccaron" unicode="&#x10c;" horiz-adv-x="1462" 
d="M1081 1882l-192 -276q-9 -12 -69 -11.5t-68 11.5l-191 276q-15 22 30 56t66 14l164 -150l162 150q21 20 67 -14t31 -56zM913 -33q-108 0 -216 24t-214 80t-187.5 136.5t-132 204.5t-50.5 274q0 110 25.5 216t86 209.5t150 181t228 125.5t308.5 48q118 0 220.5 -21.5
t157 -56t42.5 -69.5l-31 -88q-22 -63 -44.5 -86.5t-46.5 -16.5t-64.5 30.5t-86 51t-124 49t-166.5 21.5q-104 0 -181.5 -33t-123.5 -95t-68 -143t-22 -184q0 -134 39 -244t101 -180t143 -118.5t161 -69t158 -20.5q48 0 164.5 22.5t163.5 54.5q12 8 38 -22t17 -43
q-40 -60 -136.5 -118t-183 -89t-125.5 -31z" />
    <glyph glyph-name="ccaron" unicode="&#x10d;" horiz-adv-x="1032" 
d="M840 1401l-193 -277q-9 -12 -69 -11.5t-68 11.5l-191 277q-15 22 30.5 55.5t66.5 13.5l164 -149l161 149q21 20 67.5 -13.5t31.5 -55.5zM662 -33q-77 0 -154 15.5t-153 52t-133.5 90.5t-93.5 137.5t-36 186.5q0 77 19.5 151t63.5 145t108.5 125t162 86.5t216.5 32.5
q48 0 96.5 -7t89 -20t62.5 -33t16 -44l-23 -82q-14 -56 -35.5 -71.5t-53.5 0t-67 40t-89 47.5t-107 23q-95 0 -143 -76t-48 -191q0 -97 35 -182t88 -139t112 -84.5t110 -30.5q54 0 194 31q8 2 17.5 -14t12.5 -31t-1 -19q-25 -13 -87.5 -50.5t-111 -63t-67.5 -25.5z" />
    <glyph glyph-name="Dcaron" unicode="&#x10e;" horiz-adv-x="1685" 
d="M1081 1882l-192 -276q-9 -12 -69 -11.5t-68 11.5l-191 276q-15 22 30 56t66 14l164 -150l162 150q21 20 67 -14t31 -56zM72 -4q-9 -1 -15.5 20t-6 43.5t8.5 24.5q100 27 132 45q73 50 75 156v895q0 44 -13 76t-39.5 52t-52 31t-63.5 21q-7 2 -7.5 22t4.5 38.5t11 17.5
q109 -13 283 -13q102 0 245.5 6.5t184.5 6.5q175 0 320 -52.5t241.5 -145t149.5 -218.5t53 -272q0 -145 -51.5 -279t-145.5 -240.5t-242 -170.5t-327 -64q-39 0 -171 6t-228 6q-236 0 -346 -12zM862 117q221 0 320.5 120t99.5 367q0 206 -64.5 367t-187.5 253.5t-287 92.5
q-93 0 -134.5 -32.5t-41.5 -104.5v-895q0 -81 74.5 -124.5t220.5 -43.5z" />
    <glyph glyph-name="dcaron" unicode="&#x10f;" horiz-adv-x="1251" 
d="M1389 1587q44 0 109 -65t65 -113q0 -121 -102 -266.5t-247 -239.5q-16 -8 -46 12q-30 22 -15 39q80 72 139.5 155t59.5 151q0 19 -22 39t-49 35t-49 36t-22 41q0 48 67.5 112t111.5 64zM1243 111q17 -9 17 -35q0 -31 -107.5 -70t-181.5 -39q-21 0 -42 21t-35.5 45.5
t-36.5 39.5t-46 5q-189 -88 -257 -104q-27 -7 -46 -7q-177 0 -296.5 130.5t-119.5 344.5q0 147 59 270.5t174 200t265 76.5q43 0 83 -7.5t61 -15t39 -13t25.5 -1.5t11 19.5t3.5 50.5v164q0 59 -6.5 90.5t-31.5 56t-67.5 35t-121.5 18.5q-11 1 -8.5 32t14.5 32l491 90
q13 4 25 -6.5t8 -30.5q-41 -193 -41 -389v-891q0 -47 14.5 -74t35.5 -32t45.5 -6.5t43.5 3t29 -2.5zM813 229v469q-26 65 -84 111.5t-149 46.5q-224 0 -224 -319q0 -189 81 -304.5t196 -115.5q42 0 111 39.5t69 72.5z" />
    <glyph glyph-name="Dcroat" unicode="&#x110;" horiz-adv-x="1685" 
d="M819 1438q175 0 320 -52.5t241.5 -145t149.5 -218.5t53 -272q0 -145 -51.5 -279t-145.5 -240.5t-242 -170.5t-327 -64q-39 0 -171 6t-228 6q-236 0 -346 -12q-9 -1 -15.5 20t-6 43.5t8.5 24.5q100 27 132 45q73 50 75 156v381h-147q-17 0 -23.5 26t0 52t23.5 26h147v410
q0 44 -13 76t-39.5 52t-52 31t-63.5 21q-7 2 -7.5 22t4.5 38.5t11 17.5q109 -13 283 -13q102 0 245.5 6.5t184.5 6.5zM862 117q221 0 320.5 120t99.5 367q0 206 -64.5 367t-187.5 253.5t-287 92.5q-93 0 -134.5 -32.5t-41.5 -104.5v-410h107q17 0 23.5 -26t0 -52t-23.5 -26
h-107v-381q0 -81 74.5 -124.5t220.5 -43.5z" />
    <glyph glyph-name="dcroat" unicode="&#x111;" horiz-adv-x="1265" 
d="M1243 111q17 -9 17 -35q0 -31 -107.5 -70t-181.5 -39q-21 0 -42 21t-35.5 45.5t-36.5 39.5t-46 5q-189 -88 -257 -104q-27 -7 -46 -7q-177 0 -296.5 130.5t-119.5 344.5q0 147 59 270.5t174 200t265 76.5q43 0 83 -7.5t61 -15t39 -13t25.5 -1.5t11 19.5t3.5 50.5v74h-180
q-24 0 -11 48q15 52 45 75q10 8 19 8h127q-5 84 -48 115t-179 44q-11 1 -8.5 32t14.5 32l491 90q13 4 25 -6.5t8 -30.5q-30 -129 -37 -276h138q24 0 9 -50q-16 -53 -45 -74q-8 -7 -16 -7h-90v-873q0 -47 14.5 -74t35.5 -32t45.5 -6.5t43.5 3t29 -2.5zM813 229v469
q-26 65 -84 111.5t-149 46.5q-224 0 -224 -319q0 -189 81 -304.5t196 -115.5q42 0 111 39.5t69 72.5z" />
    <glyph glyph-name="Emacron" unicode="&#x112;" horiz-adv-x="1396" 
d="M975 1833q24 0 9 -50q-15 -53 -44 -74q-8 -7 -16 -7h-533q-24 0 -11 48q15 52 45 75q10 8 19 8h531zM72 -4q-9 -1 -15.5 20t-6 43.5t8.5 24.5q100 27 132 45q73 50 75 156v895q0 44 -13 76t-40 51.5t-51.5 30.5t-63.5 22q-7 2 -7.5 22t4.5 38.5t11 17.5
q51 -8 139.5 -11.5t157 -3.5t157.5 1t97 1q108 0 277.5 6t216.5 7q36 0 44.5 -22.5t-1.5 -59.5l-47 -197q-5 -23 -33.5 -23t-34.5 23q-19 57 -49 87t-99 46.5t-192 16.5q-95 0 -133.5 -30.5t-38.5 -102.5v-324q0 -37 17 -50.5t51 -13.5h53q116 0 216.5 20t152.5 62
q18 16 40.5 8.5t8.5 -38.5l-111 -258q-13 -30 -35 -30t-40 26q-32 48 -98.5 72t-147.5 24h-39q-34 0 -51 -13.5t-17 -50.5v-325q0 -89 42.5 -126.5t158.5 -37.5q95 0 180 24t141.5 61.5t91.5 70.5t56 63q9 13 43.5 2t34.5 -33q0 -35 -17.5 -87t-46.5 -103.5t-73.5 -87.5
t-92.5 -35q-278 12 -389 12q-27 0 -144 0.5t-176 0t-149.5 -3.5t-154.5 -9z" />
    <glyph glyph-name="emacron" unicode="&#x113;" horiz-adv-x="1069" 
d="M268 1221q-24 0 -10 48q14 52 44 75q11 8 20 8h530q24 0 9 -50q-15 -53 -44 -74q-8 -7 -16 -7h-533zM938 166q8 2 17 -13.5t11.5 -30t-1.5 -18.5q-29 -12 -93 -47.5t-116.5 -62.5t-71.5 -27q-86 0 -166 14t-159 48.5t-137 87.5t-94 137t-36 190q0 78 19 153.5t61 147
t101.5 125.5t148 86.5t194.5 32.5q88 0 155 -24.5t102.5 -59.5t58 -80t29 -79t6.5 -64q0 -42 -13 -101.5t-32 -97.5l-564 -16q16 -83 56 -147.5t94.5 -103t116.5 -58t127 -19.5q51 0 186 27zM541 842q-189 0 -193 -254l383 12q15 99 -38.5 170.5t-151.5 71.5z" />
    <glyph glyph-name="Edotaccent" unicode="&#x116;" horiz-adv-x="1396" 
d="M682 1616q-43 0 -104.5 60t-61.5 108q0 45 62 104.5t104 59.5t104 -59.5t62 -104.5q0 -48 -61.5 -108t-104.5 -60zM72 -4q-9 -1 -15.5 20t-6 43.5t8.5 24.5q100 27 132 45q73 50 75 156v895q0 44 -13 76t-40 51.5t-51.5 30.5t-63.5 22q-7 2 -7.5 22t4.5 38.5t11 17.5
q51 -8 139.5 -11.5t157 -3.5t157.5 1t97 1q108 0 277.5 6t216.5 7q36 0 44.5 -22.5t-1.5 -59.5l-47 -197q-5 -23 -33.5 -23t-34.5 23q-19 57 -49 87t-99 46.5t-192 16.5q-95 0 -133.5 -30.5t-38.5 -102.5v-324q0 -37 17 -50.5t51 -13.5h53q116 0 216.5 20t152.5 62
q18 16 40.5 8.5t8.5 -38.5l-111 -258q-13 -30 -35 -30t-40 26q-32 48 -98.5 72t-147.5 24h-39q-34 0 -51 -13.5t-17 -50.5v-325q0 -89 42.5 -126.5t158.5 -37.5q95 0 180 24t141.5 61.5t91.5 70.5t56 63q9 13 43.5 2t34.5 -33q0 -35 -17.5 -87t-46.5 -103.5t-73.5 -87.5
t-92.5 -35q-278 12 -389 12q-27 0 -144 0.5t-176 0t-149.5 -3.5t-154.5 -9z" />
    <glyph glyph-name="edotaccent" unicode="&#x117;" horiz-adv-x="1069" 
d="M559 1135q-43 0 -104.5 60t-61.5 108q0 45 62 104t104 59t104 -59t62 -104q0 -48 -61.5 -108t-104.5 -60zM938 166q8 2 17 -13.5t11.5 -30t-1.5 -18.5q-29 -12 -93 -47.5t-116.5 -62.5t-71.5 -27q-86 0 -166 14t-159 48.5t-137 87.5t-94 137t-36 190q0 78 19 153.5
t61 147t101.5 125.5t148 86.5t194.5 32.5q88 0 155 -24.5t102.5 -59.5t58 -80t29 -79t6.5 -64q0 -42 -13 -101.5t-32 -97.5l-564 -16q16 -83 56 -147.5t94.5 -103t116.5 -58t127 -19.5q51 0 186 27zM541 842q-189 0 -193 -254l383 12q15 99 -38.5 170.5t-151.5 71.5z" />
    <glyph glyph-name="Eogonek" unicode="&#x118;" horiz-adv-x="1396" 
d="M1100 -4q-21 -8 -65.5 -24t-74 -27t-68 -31t-62 -39t-40 -47.5t-16.5 -60.5q0 -45 27.5 -74t77.5 -29q54 0 95 31t52 63q6 18 33 6q29 -13 33 -40q2 -11 -2 -21q-6 -16 -20 -36t-40 -44.5t-58.5 -44.5t-79.5 -33.5t-99 -13.5q-45 0 -88 9.5t-84.5 29.5t-67 60t-25.5 94
q0 173 300 264q45 14 45 16q1 1 -3 2q-23 0 -80.5 1t-93.5 1q-27 0 -144 0.5t-176 0t-149.5 -3.5t-154.5 -9q-9 -1 -15.5 20t-6 43.5t8.5 24.5q100 27 132 45q73 50 75 156v895q0 44 -13 76t-40 51.5t-51.5 30.5t-63.5 22q-7 2 -7.5 22t4.5 38.5t11 17.5q51 -8 139.5 -11.5
t157 -3.5t157.5 1t97 1q108 0 277.5 6t216.5 7q36 0 44.5 -22.5t-1.5 -59.5l-47 -197q-5 -23 -33.5 -23t-34.5 23q-19 57 -49 87t-99 46.5t-192 16.5q-95 0 -133.5 -30.5t-38.5 -102.5v-324q0 -37 17 -50.5t51 -13.5h53q116 0 216.5 20t152.5 62q18 16 40.5 8.5t8.5 -38.5
l-111 -258q-13 -30 -35 -30t-40 26q-32 48 -98.5 72t-147.5 24h-39q-34 0 -51 -13.5t-17 -50.5v-325q0 -89 42.5 -126.5t158.5 -37.5q95 0 180 24t141.5 61.5t91.5 70.5t56 63q9 13 43.5 2t34.5 -33q0 -47 -26 -116t-78 -130t-111 -67z" />
    <glyph glyph-name="eogonek" unicode="&#x119;" horiz-adv-x="1058" 
d="M938 166q8 2 17 -13.5t11.5 -30t-1.5 -18.5q-29 -13 -125 -65.5t-129 -65.5q-187 -97 -187 -233q0 -44 30.5 -69t72.5 -25q54 0 96.5 37t54.5 71q6 18 26 8q24 -13 23 -43q-1 -8 -4 -16q-22 -52 -91.5 -112t-156.5 -60q-46 0 -91.5 15.5t-82 57.5t-36.5 103
q0 26 6.5 51.5t15.5 45.5t25.5 41t28.5 34.5t33.5 31.5t31.5 25t31 22t24 17q-74 10 -139.5 30.5t-127 58.5t-105.5 89t-70.5 126t-26.5 165q0 78 19 153.5t61 147t101.5 125.5t148 86.5t194.5 32.5q88 0 155 -24.5t102.5 -59.5t58 -80t29 -79t6.5 -64q0 -42 -13 -101.5
t-32 -97.5l-564 -16q16 -83 56 -147.5t94.5 -103t116.5 -58t127 -19.5q51 0 186 27zM541 842q-189 0 -193 -254l383 12q15 99 -38.5 170.5t-151.5 71.5z" />
    <glyph glyph-name="Ecaron" unicode="&#x11a;" horiz-adv-x="1396" 
d="M950 1882l-192 -276q-9 -12 -69 -11.5t-68 11.5l-191 276q-15 22 30 56t66 14l164 -150l162 150q21 20 67 -14t31 -56zM72 -4q-9 -1 -15.5 20t-6 43.5t8.5 24.5q100 27 132 45q73 50 75 156v895q0 44 -13 76t-40 51.5t-51.5 30.5t-63.5 22q-7 2 -7.5 22t4.5 38.5t11 17.5
q51 -8 139.5 -11.5t157 -3.5t157.5 1t97 1q108 0 277.5 6t216.5 7q36 0 44.5 -22.5t-1.5 -59.5l-47 -197q-5 -23 -33.5 -23t-34.5 23q-19 57 -49 87t-99 46.5t-192 16.5q-95 0 -133.5 -30.5t-38.5 -102.5v-324q0 -37 17 -50.5t51 -13.5h53q116 0 216.5 20t152.5 62
q18 16 40.5 8.5t8.5 -38.5l-111 -258q-13 -30 -35 -30t-40 26q-32 48 -98.5 72t-147.5 24h-39q-34 0 -51 -13.5t-17 -50.5v-325q0 -89 42.5 -126.5t158.5 -37.5q95 0 180 24t141.5 61.5t91.5 70.5t56 63q9 13 43.5 2t34.5 -33q0 -35 -17.5 -87t-46.5 -103.5t-73.5 -87.5
t-92.5 -35q-278 12 -389 12q-27 0 -144 0.5t-176 0t-149.5 -3.5t-154.5 -9z" />
    <glyph glyph-name="ecaron" unicode="&#x11b;" horiz-adv-x="1069" 
d="M498 1124l-191 277q-15 22 30 55.5t66 13.5l164 -149l162 149q21 20 67 -13.5t31 -55.5l-192 -277q-9 -12 -69 -11.5t-68 11.5zM938 166q8 2 17 -13.5t11.5 -30t-1.5 -18.5q-29 -12 -93 -47.5t-116.5 -62.5t-71.5 -27q-86 0 -166 14t-159 48.5t-137 87.5t-94 137t-36 190
q0 78 19 153.5t61 147t101.5 125.5t148 86.5t194.5 32.5q88 0 155 -24.5t102.5 -59.5t58 -80t29 -79t6.5 -64q0 -42 -13 -101.5t-32 -97.5l-564 -16q16 -83 56 -147.5t94.5 -103t116.5 -58t127 -19.5q51 0 186 27zM541 842q-189 0 -193 -254l383 12q15 99 -38.5 170.5
t-151.5 71.5z" />
    <glyph glyph-name="Gbreve" unicode="&#x11e;" horiz-adv-x="1630" 
d="M1051 1950q14 0 21 -1.5t14.5 -8.5t10.5 -22.5t3 -41.5q0 -41 -16.5 -83.5t-50 -82.5t-95 -65t-141.5 -25t-141.5 25t-95 65t-50 82.5t-16.5 83.5q0 34 6.5 51t15 20t27.5 3q30 0 44.5 -3.5t17.5 -11t2.5 -18t0.5 -25.5q6 -51 57 -83.5t132 -32.5t131.5 32.5t56.5 83.5
q1 15 0.5 25.5t3 18t18 11t44.5 3.5zM987 -33q-146 0 -277 29.5t-240.5 90t-188.5 147t-123.5 205t-44.5 259.5q0 117 31 226.5t98.5 208.5t164.5 172.5t238.5 117t310.5 43.5q126 0 231 -22t159 -57.5t40 -73.5l-36 -94q-21 -57 -43 -76.5t-46 -12.5t-65.5 30t-89.5 49.5
t-131 46.5t-178 20q-228 0 -326 -113.5t-98 -337.5q0 -155 46.5 -289.5t123.5 -225t178 -142t209 -51.5q104 0 139 42.5t35 127.5v35q0 111 -56.5 161t-181.5 68q-18 3 -4 36q15 37 43 48l13 2h567q28 0 38.5 -20.5t5 -41.5t-17.5 -24q-71 -19 -105 -60.5t-34 -132.5v-69
q0 -83 45 -146q-88 -52 -241 -114t-189 -62z" />
    <glyph glyph-name="gbreve" unicode="&#x11f;" horiz-adv-x="1232" 
d="M559 1139q-80 0 -141.5 25t-95 65t-50 82.5t-16.5 83.5q0 34 6.5 50.5t15 19.5t27.5 3q30 0 44.5 -3.5t18 -10.5t3 -17.5t0.5 -25.5q6 -51 56.5 -84t131.5 -33t132 33t57 84q1 15 0.5 25.5t2.5 17.5t17.5 10.5t44.5 3.5q19 0 27.5 -3t15 -19.5t6.5 -50.5
q0 -41 -16.5 -83.5t-50 -82.5t-95 -65t-141.5 -25zM1073 969q57 0 80 -52q23 -54 -9 -109q-45 -74 -155 -75h-41q8 -36 8 -84q0 -66 -22.5 -126.5t-69.5 -112t-129.5 -82.5t-191.5 -31q-82 0 -133.5 -31t-51.5 -73q0 -30 28.5 -47t82.5 -17h383q244 0 244 -182
q0 -107 -83 -203t-226 -154.5t-308 -58.5q-83 0 -147.5 17t-102 43t-61.5 60.5t-32.5 65t-8.5 60.5q0 9 10.5 23t30 32.5t39.5 35t48 40t46 39.5q-62 37 -120 100t-58 94q0 28 12 44t45 38l170 105q-108 41 -162.5 124t-54.5 185q0 66 23 126.5t70 112t130 82.5t193 31
q167 0 276 -74q43 -22 70.5 -25t44 9.5t30.5 27.5t40 28.5t63 13.5zM586 412q72 0 104.5 50t32.5 130q0 111 -63 196.5t-148 85.5q-70 0 -105.5 -52.5t-35.5 -135.5q0 -109 63 -191.5t152 -82.5zM713 -82h-336h-8q-17 -91 -17 -121q0 -58 62.5 -103.5t183.5 -45.5
q160 0 227 80q47 55 23 114q-22 58 -96 73q-19 3 -39 3z" />
    <glyph glyph-name="Gdotaccent" unicode="&#x120;" horiz-adv-x="1630" 
d="M797 1616q-43 0 -104.5 60t-61.5 108q0 45 62 104.5t104 59.5t104 -59.5t62 -104.5q0 -48 -61.5 -108t-104.5 -60zM987 -33q-146 0 -277 29.5t-240.5 90t-188.5 147t-123.5 205t-44.5 259.5q0 117 31 226.5t98.5 208.5t164.5 172.5t238.5 117t310.5 43.5q126 0 231 -22
t159 -57.5t40 -73.5l-36 -94q-21 -57 -43 -76.5t-46 -12.5t-65.5 30t-89.5 49.5t-131 46.5t-178 20q-228 0 -326 -113.5t-98 -337.5q0 -155 46.5 -289.5t123.5 -225t178 -142t209 -51.5q104 0 139 42.5t35 127.5v35q0 111 -56.5 161t-181.5 68q-18 3 -4 36q15 37 43 48l13 2
h567q28 0 38.5 -20.5t5 -41.5t-17.5 -24q-71 -19 -105 -60.5t-34 -132.5v-69q0 -83 45 -146q-88 -52 -241 -114t-189 -62z" />
    <glyph glyph-name="gdotaccent" unicode="&#x121;" horiz-adv-x="1232" 
d="M559 1135q-43 0 -104.5 60t-61.5 108q0 45 62 104t104 59t104 -59t62 -104q0 -48 -61.5 -108t-104.5 -60zM1073 969q57 0 80 -52q23 -54 -9 -109q-45 -74 -155 -75h-41q8 -36 8 -84q0 -66 -22.5 -126.5t-69.5 -112t-129.5 -82.5t-191.5 -31q-82 0 -133.5 -31t-51.5 -73
q0 -30 28.5 -47t82.5 -17h383q244 0 244 -182q0 -107 -83 -203t-226 -154.5t-308 -58.5q-83 0 -147.5 17t-102 43t-61.5 60.5t-32.5 65t-8.5 60.5q0 9 10.5 23t30 32.5t39.5 35t48 40t46 39.5q-62 37 -120 100t-58 94q0 28 12 44t45 38l170 105q-108 41 -162.5 124
t-54.5 185q0 66 23 126.5t70 112t130 82.5t193 31q167 0 276 -74q43 -22 70.5 -25t44 9.5t30.5 27.5t40 28.5t63 13.5zM586 412q72 0 104.5 50t32.5 130q0 111 -63 196.5t-148 85.5q-70 0 -105.5 -52.5t-35.5 -135.5q0 -109 63 -191.5t152 -82.5zM713 -82h-336h-8
q-17 -91 -17 -121q0 -58 62.5 -103.5t183.5 -45.5q160 0 227 80q47 55 23 114q-22 58 -96 73q-19 3 -39 3z" />
    <glyph glyph-name="uni0122" unicode="&#x122;" horiz-adv-x="1630" 
d="M987 -33q-146 0 -277 29.5t-240.5 90t-188.5 147t-123.5 205t-44.5 259.5q0 117 31 226.5t98.5 208.5t164.5 172.5t238.5 117t310.5 43.5q126 0 231 -22t159 -57.5t40 -73.5l-36 -94q-21 -57 -43 -76.5t-46 -12.5t-65.5 30t-89.5 49.5t-131 46.5t-178 20
q-228 0 -326 -113.5t-98 -337.5q0 -155 46.5 -289.5t123.5 -225t178 -142t209 -51.5q104 0 139 42.5t35 127.5v35q0 111 -56.5 161t-181.5 68q-18 3 -4 36q15 37 43 48l13 2h567q28 0 38.5 -20.5t5 -41.5t-17.5 -24q-71 -19 -105 -60.5t-34 -132.5v-69q0 -83 45 -146
q-88 -52 -241 -114t-189 -62zM709 -766q-16 -9 -47 11q-30 23 -15 40q78 69 138.5 153t60.5 152q0 19 -22 39.5t-48.5 35t-48.5 36t-22 41.5q0 48 67 112t111 64t109 -65t65 -113q0 -121 -101.5 -266.5t-246.5 -239.5z" />
    <glyph glyph-name="uni0123" unicode="&#x123;" horiz-adv-x="1232" 
d="M508 1022q-44 0 -109 65t-65 113q0 121 101.5 266.5t246.5 239.5q15 9 46 -11q31 -21 18 -37q-1 -2 -3 -3q-78 -69 -138 -153t-60 -152q0 -19 22 -39.5t48.5 -35t48.5 -36t22 -41.5q0 -48 -66.5 -112t-111.5 -64zM1073 969q57 0 80 -52q23 -54 -9 -109q-45 -74 -155 -75
h-41q8 -36 8 -84q0 -66 -22.5 -126.5t-69.5 -112t-129.5 -82.5t-191.5 -31q-82 0 -133.5 -31t-51.5 -73q0 -30 28.5 -47t82.5 -17h383q244 0 244 -182q0 -107 -83 -203t-226 -154.5t-308 -58.5q-83 0 -147.5 17t-102 43t-61.5 60.5t-32.5 65t-8.5 60.5q0 9 10.5 23t30 32.5
t39.5 35t48 40t46 39.5q-62 37 -120 100t-58 94q0 28 12 44t45 38l170 105q-108 41 -162.5 124t-54.5 185q0 66 23 126.5t70 112t130 82.5t193 31q167 0 276 -74q43 -22 70.5 -25t44 9.5t30.5 27.5t40 28.5t63 13.5zM586 412q72 0 104.5 50t32.5 130q0 111 -63 196.5
t-148 85.5q-70 0 -105.5 -52.5t-35.5 -135.5q0 -109 63 -191.5t152 -82.5zM713 -82h-336h-8q-17 -91 -17 -121q0 -58 62.5 -103.5t183.5 -45.5q160 0 227 80q47 55 23 114q-22 58 -96 73q-19 3 -39 3z" />
    <glyph glyph-name="Hbar" unicode="&#x126;" horiz-adv-x="1751" 
d="M1640 80q8 -1 8 -21t-6 -39.5t-14 -19.5h-610q-8 0 -14 19.5t-6 39.5t8 21q86 11 125.5 52.5t39.5 131.5v328q-4 12 -12.5 20t-23.5 11t-25 3.5t-29 0.5h-438q-20 0 -30.5 -0.5t-25.5 -3.5t-23.5 -11t-12.5 -20v-328q0 -51 13.5 -86.5t39 -55t52 -28.5t63.5 -14
q8 -1 8 -21t-6 -39.5t-14 -19.5h-613q-8 0 -14 19.5t-6 39.5t8 21q86 11 127 53t41 131v654h-150q-18 5 -19 37t15.5 69t36.5 37h117v108q0 89 -41 131.5t-127 53.5q-8 1 -8 21t6 39.5t14 19.5h613q8 0 14 -19.5t6 -39.5t-8 -21q-37 -5 -63.5 -14.5t-52 -28.5t-39 -55
t-13.5 -87v-108h620v108q0 90 -39.5 132t-125.5 53q-8 1 -8 21t6 39.5t14 19.5h610q8 0 14 -19.5t6 -39.5t-8 -21q-37 -5 -63 -14.5t-52 -28.5t-39 -55t-13 -87v-108h182q17 -5 15 -37t-21 -69t-37 -37h-139v-654q0 -51 13 -86.5t39 -55t52 -28.5t63 -14zM1081 782
q19 0 29 0.5t25 3.5t23.5 11t12.5 20v101h-620v-101q4 -12 12.5 -20t23.5 -11t25.5 -3.5t30.5 -0.5h438z" />
    <glyph glyph-name="hbar" unicode="&#x127;" horiz-adv-x="1320" 
d="M1251 72q7 -4 7 -20t-6 -34t-13 -18h-502q-9 0 -14 35t4 37q63 9 92 44.5t29 110.5v361q0 126 -44 171.5t-155 45.5q-71 0 -129.5 -19.5t-58.5 -56.5v-502q0 -137 141 -155q6 -4 6 -20t-6 -34t-14 -18h-516q-8 0 -15 18t-7 34t7 20q140 18 140 155v846h-119q-24 0 -11 48
q15 52 45 75q10 8 19 8h64q-7 103 -37.5 138.5t-106.5 43.5q-13 2 -8.5 32.5t16.5 35.5l410 86q16 3 26.5 -8.5t4.5 -28.5q-26 -105 -33 -299h195q24 0 9 -50q-16 -53 -45 -74q-9 -7 -16 -7h-147q-2 -43 -2 -121q0 -37 17 -52t42 -7q26 9 96.5 38t124 43.5t107.5 14.5
q59 0 106 -17t76 -44.5t48 -65t26.5 -74.5t7.5 -77v-484q0 -136 139 -155z" />
    <glyph glyph-name="Itilde" unicode="&#x128;" horiz-adv-x="815" 
d="M645 1911q5 5 24.5 -4.5t35.5 -22.5t12 -18q-12 -16 -35 -45.5t-35 -44.5t-29.5 -35.5t-33.5 -35t-33 -26.5q-47 0 -134 36t-120 36q-23 0 -62 -20t-67 -48q-5 -5 -24.5 4.5t-35.5 23t-12 18.5q11 14 34.5 44.5t35 45t29.5 35.5t34 35t33 26q48 0 135 -36t119 -36
q23 0 63.5 20.5t65.5 47.5zM102 0q-8 0 -14 19.5t-6 39.5t8 21q86 11 126 52.5t40 131.5v905q0 90 -40 132t-126 53q-8 1 -8 21t6 39.5t14 19.5h611q8 0 14 -19.5t6 -39.5t-8 -21q-37 -5 -63.5 -14.5t-52 -28.5t-39 -55t-13.5 -87v-905q0 -51 13.5 -86.5t39 -55t52 -28.5
t63.5 -14q8 -1 8 -21t-6 -39.5t-14 -19.5h-611z" />
    <glyph glyph-name="itilde" unicode="&#x129;" horiz-adv-x="679" 
d="M584 1430q5 5 24 -4.5t35 -23t12 -18.5q-11 -14 -34.5 -44.5t-35 -45t-29.5 -35.5t-34 -35t-33 -26q-47 0 -134 36t-119 36q-23 0 -62.5 -20t-67.5 -48q-5 -5 -24 4.5t-35 22.5t-12 18q12 16 35 45.5t35 44.5t29.5 35.5t33.5 35t33 26.5q47 0 134 -36t120 -36
q23 0 63.5 20.5t65.5 47.5zM84 0q-8 0 -14.5 18t-6.5 34t7 20q141 18 141 155v428q0 94 -28 127.5t-107 42.5q-13 2 -8.5 33.5t16.5 34.5l399 92q16 2 22.5 -7.5t2.5 -29.5q-33 -156 -33 -321v-400q0 -137 137 -155q6 -4 6 -20t-6 -34t-14 -18h-514z" />
    <glyph glyph-name="Imacron" unicode="&#x12a;" horiz-adv-x="815" 
d="M700 1833q24 0 9 -50q-15 -53 -44 -74q-8 -7 -16 -7h-532q-24 0 -11 48q15 52 45 75q10 8 19 8h530zM102 0q-8 0 -14 19.5t-6 39.5t8 21q86 11 126 52.5t40 131.5v905q0 90 -40 132t-126 53q-8 1 -8 21t6 39.5t14 19.5h611q8 0 14 -19.5t6 -39.5t-8 -21
q-37 -5 -63.5 -14.5t-52 -28.5t-39 -55t-13.5 -87v-905q0 -51 13.5 -86.5t39 -55t52 -28.5t63.5 -14q8 -1 8 -21t-6 -39.5t-14 -19.5h-611z" />
    <glyph glyph-name="imacron" unicode="&#x12b;" horiz-adv-x="679" 
d="M639 1352q24 0 9 -50q-15 -53 -44 -74q-8 -7 -16 -7h-533q-24 0 -10 48q14 52 44 75q11 8 20 8h530zM84 0q-8 0 -14.5 18t-6.5 34t7 20q141 18 141 155v428q0 94 -28 127.5t-107 42.5q-13 2 -8.5 33.5t16.5 34.5l399 92q16 2 22.5 -7.5t2.5 -29.5q-33 -156 -33 -321v-400
q0 -137 137 -155q6 -4 6 -20t-6 -34t-14 -18h-514z" />
    <glyph glyph-name="Iogonek" unicode="&#x12e;" horiz-adv-x="815" 
d="M725 80q8 -1 8 -21t-6 -39.5t-14 -19.5h-148q-22 -9 -66 -25t-74.5 -27.5t-69 -30.5t-62.5 -38.5t-40.5 -48t-16.5 -61.5q0 -45 27 -74t77 -29q54 0 95 31t52 63q6 18 33 6q29 -13 33 -40q2 -11 -2 -21q-6 -16 -20 -36t-40 -44.5t-58.5 -44.5t-79.5 -33.5t-99 -13.5
q-35 0 -69.5 5.5t-70.5 19t-63 34.5t-44 55.5t-17 78.5q0 34 12.5 65.5t30 54.5t47 45t53 35.5t58.5 28t53 20.5t47 15t31 10h-220q-8 0 -14 19.5t-6 39.5t8 21q86 11 126 52.5t40 131.5v905q0 90 -40 132t-126 53q-8 1 -8 21t6 39.5t14 19.5h611q8 0 14 -19.5t6 -39.5
t-8 -21q-37 -5 -63.5 -14.5t-52 -28.5t-39 -55t-13.5 -87v-905q0 -51 13.5 -86.5t39 -55t52 -28.5t63.5 -14z" />
    <glyph glyph-name="iogonek" unicode="&#x12f;" horiz-adv-x="679" 
d="M346 1135q-43 0 -104.5 60t-61.5 108q0 45 62 104t104 59t104 -59t62 -104q0 -48 -61.5 -108t-104.5 -60zM612 72q6 -4 6 -19.5t-6 -33.5t-14 -19h2q-23 -9 -66 -25t-75 -27.5t-70.5 -31t-63.5 -39t-42 -48.5t-17 -62q0 -45 27.5 -74t77.5 -29q54 0 95 31t52 63
q6 18 33 6q29 -13 33 -40q2 -11 -2 -21q-6 -16 -20 -36t-40 -44.5t-58.5 -44.5t-79.5 -33.5t-99 -13.5q-45 0 -88 9.5t-84.5 29.5t-67 60t-25.5 94q0 47 22.5 88t54 67.5t75.5 50t76.5 35t69 22.5t40.5 13h-274q-8 0 -14.5 18t-6.5 34t7 20q141 18 141 155v428
q0 94 -28 127.5t-107 42.5q-13 2 -8.5 33.5t16.5 34.5l399 92q16 2 22.5 -7.5t2.5 -29.5q-33 -156 -33 -321v-400q0 -137 137 -155z" />
    <glyph glyph-name="Idotaccent" unicode="&#x130;" horiz-adv-x="815" 
d="M408 1616q-43 0 -104.5 60t-61.5 108q0 45 62 104.5t104 59.5t103.5 -59.5t61.5 -104.5q0 -48 -61 -108t-104 -60zM102 0q-8 0 -14 19.5t-6 39.5t8 21q86 11 126 52.5t40 131.5v905q0 90 -40 132t-126 53q-8 1 -8 21t6 39.5t14 19.5h611q8 0 14 -19.5t6 -39.5t-8 -21
q-37 -5 -63.5 -14.5t-52 -28.5t-39 -55t-13.5 -87v-905q0 -51 13.5 -86.5t39 -55t52 -28.5t63.5 -14q8 -1 8 -21t-6 -39.5t-14 -19.5h-611z" />
    <glyph glyph-name="dotlessi" unicode="&#x131;" horiz-adv-x="679" 
d="M84 0q-8 0 -14.5 18t-6.5 34t7 20q141 18 141 155v428q0 94 -28 127.5t-107 42.5q-13 2 -8.5 33.5t16.5 34.5l399 92q16 2 22.5 -7.5t2.5 -29.5q-33 -156 -33 -321v-400q0 -137 137 -155q6 -4 6 -20t-6 -34t-14 -18h-514z" />
    <glyph glyph-name="uni0136" unicode="&#x136;" horiz-adv-x="1732" 
d="M725 80q8 -1 8 -21t-6 -39.5t-14 -19.5h-611q-8 0 -14 19.5t-6 39.5t8 21q86 11 126 52.5t40 131.5v905q0 90 -40 132t-126 53q-8 1 -8 21t6 39.5t14 19.5h611q8 0 14 -19.5t6 -39.5t-8 -21q-37 -5 -63.5 -14.5t-52 -28.5t-39 -55t-13.5 -87v-905q0 -51 13.5 -86.5
t39 -55t52 -28.5t63.5 -14zM1630 57q11 0 9.5 -30.5t-9.5 -32.5q-60 -17 -120.5 -22t-125.5 3t-127 39t-110 84l-567 625l456 477q65 69 59 104t-87 50q-16 3 -13.5 41.5t15.5 38.5h503q8 0 14 -19.5t5 -39.5t-10 -21q-190 -30 -324 -176l-334 -357l514 -567
q180 -197 252 -197zM930 -82q44 0 109 -65t65 -113q0 -121 -101.5 -266.5t-246.5 -239.5q-16 -9 -47 11q-30 23 -15 40q78 69 138.5 153t60.5 152q0 19 -22 39.5t-48.5 35t-48.5 36t-22 41.5q0 48 67 112t111 64z" />
    <glyph glyph-name="uni0137" unicode="&#x137;" horiz-adv-x="1384" 
d="M84 0q-8 0 -14.5 18t-6.5 34t7 20q137 18 137 155v877q0 116 -14 173t-45 80t-97 29q-8 1 -9.5 16.5t4 31t13.5 16.5l420 90q14 3 25.5 -7.5t5.5 -29.5q-39 -215 -39 -481v-795q0 -137 135 -155q7 -4 7 -20t-6.5 -34t-14.5 -18h-508zM1087 -35q-48 6 -123.5 64t-153 141
t-145 165.5t-114.5 149.5q-15 23 -15.5 38t21.5 36q140 112 180 155q91 97 37 155l-8 8q-27 22 -22.5 48.5t32.5 26.5h455q18 0 26 -19t0 -39.5t-26 -23.5q-115 -16 -206 -59.5t-151 -99.5q-68 -65 -82 -96.5t11 -69.5q42 -59 104.5 -130.5t132 -140t139 -116.5t113.5 -52
q12 -1 19 -3t14.5 -10t7.5 -21q0 -5 -1 -9t-4 -7t-6 -5t-8.5 -4.5t-9.5 -4t-11.5 -4.5l-12.5 -5zM528 -766q-15 -9 -46 11q-31 21 -18 37q1 2 3 3q78 69 138.5 153t60.5 152q0 19 -22 39.5t-49 35t-49 36t-22 41.5q0 48 67 112t111 64t109.5 -65t65.5 -113
q0 -121 -102 -266.5t-247 -239.5z" />
    <glyph glyph-name="Lacute" unicode="&#x139;" horiz-adv-x="1376" 
d="M276 1686l179 266q17 25 70 -7.5t89 -82t13 -66.5l-262 -197q-20 -15 -62 25t-27 62zM72 -4q-9 -1 -15.5 20t-6 43.5t8.5 24.5q100 27 132 45q73 50 75 156v884q0 51 -13.5 87t-39 55t-52 28.5t-63.5 14.5q-7 4 -7.5 21.5t5.5 38t13 20.5h614q9 0 13.5 -39t-5.5 -41
q-35 -4 -61 -13.5t-51 -29t-38.5 -55.5t-13.5 -87v-884q0 -89 42.5 -126.5t158.5 -37.5q95 0 180 24t141.5 61.5t91.5 70.5t56 63q9 13 43.5 2t34.5 -33q0 -35 -17.5 -87t-46.5 -103.5t-73.5 -87.5t-92.5 -35q-278 12 -389 12q-27 0 -144 0.5t-176 0t-149.5 -3.5t-154.5 -9z
" />
    <glyph glyph-name="lacute" unicode="&#x13a;" horiz-adv-x="673" 
d="M164 1686l178 266q17 25 70 -7.5t89 -82t13 -66.5l-262 -197q-20 -15 -61.5 25t-26.5 62zM84 0q-8 0 -14.5 18t-6.5 34t7 20q137 18 137 155v877q0 116 -14 173t-45 80t-97 29q-8 1 -9.5 16.5t4 31t13.5 16.5l420 90q14 3 25.5 -7.5t5.5 -29.5q-39 -215 -39 -481v-795
q0 -137 135 -155q7 -4 7 -20t-6.5 -34t-14.5 -18h-508z" />
    <glyph glyph-name="uni013B" unicode="&#x13b;" horiz-adv-x="1376" 
d="M72 -4q-9 -1 -15.5 20t-6 43.5t8.5 24.5q100 27 132 45q73 50 75 156v884q0 51 -13.5 87t-39 55t-52 28.5t-63.5 14.5q-7 4 -7.5 21.5t5.5 38t13 20.5h614q9 0 13.5 -39t-5.5 -41q-35 -4 -61 -13.5t-51 -29t-38.5 -55.5t-13.5 -87v-884q0 -89 42.5 -126.5t158.5 -37.5
q95 0 180 24t141.5 61.5t91.5 70.5t56 63q9 13 43.5 2t34.5 -33q0 -35 -17.5 -87t-46.5 -103.5t-73.5 -87.5t-92.5 -35q-278 12 -389 12q-27 0 -144 0.5t-176 0t-149.5 -3.5t-154.5 -9zM578 -766q-16 -9 -47 11q-30 23 -15 40q78 69 138.5 153t60.5 152q0 19 -22 39.5
t-49 35t-49 36t-22 41.5q0 48 67.5 112t111.5 64t109 -65t65 -113q0 -121 -101.5 -266.5t-246.5 -239.5z" />
    <glyph glyph-name="uni013C" unicode="&#x13c;" horiz-adv-x="673" 
d="M84 0q-8 0 -14.5 18t-6.5 34t7 20q137 18 137 155v877q0 116 -14 173t-45 80t-97 29q-8 1 -9.5 16.5t4 31t13.5 16.5l420 90q14 3 25.5 -7.5t5.5 -29.5q-39 -215 -39 -481v-795q0 -137 135 -155q7 -4 7 -20t-6.5 -34t-14.5 -18h-508zM213 -766q-15 -9 -46 11
q-31 21 -18 37q1 2 3 3q78 69 138 153t60 152q0 19 -22 39.5t-48.5 35t-48.5 36t-22 41.5q0 48 67 112t111 64t109 -65t65 -113q0 -121 -101.5 -266.5t-246.5 -239.5z" />
    <glyph glyph-name="Lcaron" unicode="&#x13d;" horiz-adv-x="1376" 
d="M719 1882l-193 -276q-9 -12 -69 -11.5t-68 11.5l-190 276q-15 22 30 56t66 14l164 -150l162 150q21 20 67 -14t31 -56zM72 -4q-9 -1 -15.5 20t-6 43.5t8.5 24.5q100 27 132 45q73 50 75 156v884q0 51 -13.5 87t-39 55t-52 28.5t-63.5 14.5q-7 4 -7.5 21.5t5.5 38t13 20.5
h614q9 0 13.5 -39t-5.5 -41q-35 -4 -61 -13.5t-51 -29t-38.5 -55.5t-13.5 -87v-884q0 -89 42.5 -126.5t158.5 -37.5q95 0 180 24t141.5 61.5t91.5 70.5t56 63q9 13 43.5 2t34.5 -33q0 -35 -17.5 -87t-46.5 -103.5t-73.5 -87.5t-92.5 -35q-278 12 -389 12q-27 0 -144 0.5
t-176 0t-149.5 -3.5t-154.5 -9z" />
    <glyph glyph-name="lcaron" unicode="&#x13e;" horiz-adv-x="673" 
d="M606 1882l-192 -276q-9 -12 -69.5 -11.5t-68.5 11.5l-190 276q-15 22 30 56t66 14l164 -150l162 150q21 20 67 -14t31 -56zM84 0q-8 0 -14.5 18t-6.5 34t7 20q137 18 137 155v877q0 116 -14 173t-45 80t-97 29q-8 1 -9.5 16.5t4 31t13.5 16.5l420 90q14 3 25.5 -7.5
t5.5 -29.5q-39 -215 -39 -481v-795q0 -137 135 -155q7 -4 7 -20t-6.5 -34t-14.5 -18h-508z" />
    <glyph glyph-name="Lslash" unicode="&#x141;" horiz-adv-x="1376" 
d="M1237 340q9 13 43.5 2t34.5 -33q0 -35 -17.5 -87t-46.5 -103.5t-73.5 -87.5t-92.5 -35q-278 12 -389 12q-27 0 -144 0.5t-176 0t-149.5 -3.5t-154.5 -9q-9 -1 -15.5 20t-6 43.5t8.5 24.5q100 27 132 45q73 50 75 156v227l-123 -41q-9 -3 -34 32t-43 72.5t-9 40.5l209 72
v481q0 51 -13.5 87t-39 55t-52 28.5t-63.5 14.5q-7 4 -7.5 21.5t5.5 38t13 20.5h614q9 0 13.5 -39t-5.5 -41q-35 -4 -61 -13.5t-51 -29t-38.5 -55.5t-13.5 -87v-378l348 118q9 3 34 -32t43 -72.5t9 -40.5l-434 -148v-331q0 -89 42.5 -126.5t158.5 -37.5q95 0 180 24
t141.5 61.5t91.5 70.5t56 63z" />
    <glyph glyph-name="lslash" unicode="&#x142;" horiz-adv-x="608" 
d="M578 782q9 3 26.5 -18.5t27.5 -45t1 -26.5l-162 -55v-410q0 -137 135 -155q7 -4 7 -20t-6.5 -34t-14.5 -18h-508q-8 0 -14.5 18t-6.5 34t7 20q137 18 137 155v320l-176 -60q-9 -3 -26.5 18.5t-28 45.5t-1.5 27l232 77v449q0 116 -14 173t-45 80t-97 29q-8 1 -9.5 16.5
t4 31t13.5 16.5l420 90q14 3 25.5 -7.5t5.5 -29.5q-39 -215 -39 -481v-277z" />
    <glyph glyph-name="Nacute" unicode="&#x143;" horiz-adv-x="1748" 
d="M719 1686l178 266q17 25 70 -7.5t89 -82t13 -66.5l-262 -197q-20 -15 -61.5 25t-26.5 62zM1454 -20q-49 0 -84 38l-960 953v-697q0 -24 3.5 -43.5t8 -34.5t16 -28.5t18.5 -22t26.5 -18t29 -14t36 -12t38 -10.5t43.5 -11q12 -3 7 -41.5t-20 -38.5h-528q-11 0 -16.5 38
t8.5 42q12 6 36 15t38.5 15t33.5 19.5t29.5 30.5t18.5 46.5t8 67.5v766q0 41 -3 75.5t-6.5 56t-12.5 47t-13 35.5t-16 34t-15 31q-11 16 -23.5 31.5t-18 22.5t-5.5 9q0 19 11.5 35.5t37.5 16.5h164q30 0 47 -19l938 -940v688q0 33 -5.5 59t-21 44.5t-28 30t-41 22t-45 15.5
t-54.5 14l-24 6q-12 3 -7.5 41.5t19.5 38.5h529q11 0 14.5 -38.5t-6.5 -41.5q-6 -2 -25.5 -9t-25.5 -9t-22.5 -9t-22.5 -11.5t-18.5 -13.5t-17.5 -17.5t-13 -21.5t-11 -27t-5.5 -32.5t-2.5 -40.5v-770q0 -269 25 -377q4 -20 -12.5 -28t-53.5 -8z" />
    <glyph glyph-name="nacute" unicode="&#x144;" horiz-adv-x="1325" 
d="M442 1204l179 266q17 25 70 -7.5t89 -81.5t13 -66l-263 -197q-20 -15 -61.5 24.5t-26.5 61.5zM84 0q-8 0 -14.5 18t-6.5 34t7 20q139 18 139 155v471q0 69 -33 96t-104 35q-12 2 -8 35t16 35l369 92q18 3 26 -7.5t8 -29.5q0 -38 12 -53t37 -8q29 10 95 38t118.5 43
t106.5 15q59 0 106 -17t76 -44.5t48 -65t26.5 -74.5t7.5 -77v-484q0 -136 139 -155q7 -4 7 -20t-6 -34t-13 -18h-489q-9 0 -14.5 35t3.5 37q60 9 84.5 44t24.5 111v361q0 126 -44 171.5t-155 45.5q-68 0 -124 -19.5t-56 -56.5v-502q0 -71 30.5 -108.5t98.5 -46.5q6 -4 6 -20
t-6 -34t-14 -18h-504z" />
    <glyph glyph-name="uni0145" unicode="&#x145;" horiz-adv-x="1748" 
d="M1454 -20q-49 0 -84 38l-960 953v-697q0 -24 3.5 -43.5t8 -34.5t16 -28.5t18.5 -22t26.5 -18t29 -14t36 -12t38 -10.5t43.5 -11q12 -3 7 -41.5t-20 -38.5h-528q-11 0 -16.5 38t8.5 42q12 6 36 15t38.5 15t33.5 19.5t29.5 30.5t18.5 46.5t8 67.5v766q0 41 -3 75.5t-6.5 56
t-12.5 47t-13 35.5t-16 34t-15 31q-11 16 -23.5 31.5t-18 22.5t-5.5 9q0 19 11.5 35.5t37.5 16.5h164q30 0 47 -19l938 -940v688q0 33 -5.5 59t-21 44.5t-28 30t-41 22t-45 15.5t-54.5 14l-24 6q-12 3 -7.5 41.5t19.5 38.5h529q11 0 14.5 -38.5t-6.5 -41.5q-6 -2 -25.5 -9
t-25.5 -9t-22.5 -9t-22.5 -11.5t-18.5 -13.5t-17.5 -17.5t-13 -21.5t-11 -27t-5.5 -32.5t-2.5 -40.5v-770q0 -269 25 -377q4 -20 -12.5 -28t-53.5 -8zM815 -774q-15 -9 -46 11q-31 21 -18 37q1 2 3 3q78 69 138 153t60 152q0 19 -22 39.5t-48.5 35t-48.5 36t-22 41.5
q0 48 67 112t111 64t109 -65t65 -113q0 -121 -101.5 -266.5t-246.5 -239.5z" />
    <glyph glyph-name="uni0146" unicode="&#x146;" horiz-adv-x="1325" 
d="M84 0q-8 0 -14.5 18t-6.5 34t7 20q139 18 139 155v471q0 69 -33 96t-104 35q-12 2 -8 35t16 35l369 92q18 3 26 -7.5t8 -29.5q0 -38 12 -53t37 -8q29 10 95 38t118.5 43t106.5 15q59 0 106 -17t76 -44.5t48 -65t26.5 -74.5t7.5 -77v-484q0 -136 139 -155q7 -4 7 -20
t-6 -34t-13 -18h-489q-9 0 -14.5 35t3.5 37q60 9 84.5 44t24.5 111v361q0 126 -44 171.5t-155 45.5q-68 0 -124 -19.5t-56 -56.5v-502q0 -71 30.5 -108.5t98.5 -46.5q6 -4 6 -20t-6 -34t-14 -18h-504zM492 -766q-16 -9 -47 11q-30 23 -15 40q78 69 138.5 153t60.5 152
q0 19 -22 39.5t-49 35t-49 36t-22 41.5q0 48 67.5 112t111.5 64t109 -65t65 -113q0 -121 -101.5 -266.5t-246.5 -239.5z" />
    <glyph glyph-name="Ncaron" unicode="&#x147;" horiz-adv-x="1748" 
d="M1161 1882l-192 -276q-9 -12 -69.5 -11.5t-68.5 11.5l-190 276q-15 22 30 56t66 14l164 -150l162 150q21 20 67 -14t31 -56zM1454 -20q-49 0 -84 38l-960 953v-697q0 -24 3.5 -43.5t8 -34.5t16 -28.5t18.5 -22t26.5 -18t29 -14t36 -12t38 -10.5t43.5 -11q12 -3 7 -41.5
t-20 -38.5h-528q-11 0 -16.5 38t8.5 42q12 6 36 15t38.5 15t33.5 19.5t29.5 30.5t18.5 46.5t8 67.5v766q0 41 -3 75.5t-6.5 56t-12.5 47t-13 35.5t-16 34t-15 31q-11 16 -23.5 31.5t-18 22.5t-5.5 9q0 19 11.5 35.5t37.5 16.5h164q30 0 47 -19l938 -940v688q0 33 -5.5 59
t-21 44.5t-28 30t-41 22t-45 15.5t-54.5 14l-24 6q-12 3 -7.5 41.5t19.5 38.5h529q11 0 14.5 -38.5t-6.5 -41.5q-6 -2 -25.5 -9t-25.5 -9t-22.5 -9t-22.5 -11.5t-18.5 -13.5t-17.5 -17.5t-13 -21.5t-11 -27t-5.5 -32.5t-2.5 -40.5v-770q0 -269 25 -377q4 -20 -12.5 -28
t-53.5 -8z" />
    <glyph glyph-name="ncaron" unicode="&#x148;" horiz-adv-x="1325" 
d="M885 1401l-193 -277q-9 -12 -69 -11.5t-68 11.5l-190 277q-15 22 30 55.5t66 13.5l164 -149l161 149q21 20 67.5 -13.5t31.5 -55.5zM84 0q-8 0 -14.5 18t-6.5 34t7 20q139 18 139 155v471q0 69 -33 96t-104 35q-12 2 -8 35t16 35l369 92q18 3 26 -7.5t8 -29.5
q0 -38 12 -53t37 -8q29 10 95 38t118.5 43t106.5 15q59 0 106 -17t76 -44.5t48 -65t26.5 -74.5t7.5 -77v-484q0 -136 139 -155q7 -4 7 -20t-6 -34t-13 -18h-489q-9 0 -14.5 35t3.5 37q60 9 84.5 44t24.5 111v361q0 126 -44 171.5t-155 45.5q-68 0 -124 -19.5t-56 -56.5v-502
q0 -71 30.5 -108.5t98.5 -46.5q6 -4 6 -20t-6 -34t-14 -18h-504z" />
    <glyph glyph-name="Eng" unicode="&#x14a;" horiz-adv-x="1748" 
d="M1651 1434q11 0 14.5 -38.5t-6.5 -41.5q-6 -2 -25.5 -9t-25.5 -9t-22.5 -9t-22.5 -11.5t-18.5 -13.5t-17.5 -17.5t-13 -21.5t-11 -27t-5.5 -32.5t-2.5 -40.5v-770q0 -269 25 -377q3 -18 -11 -28q-6 -78 -57.5 -159t-119.5 -138.5t-137.5 -94t-113.5 -36.5q-8 0 -15 21
t-7.5 39t6.5 22q33 4 63.5 25.5t58 62.5t44 112.5t16.5 163.5v133l-837 832v-697q0 -24 3.5 -43.5t8 -34.5t16 -28.5t18.5 -22t26.5 -18t29 -14t36 -12t38 -10.5t43.5 -11q12 -3 7 -41.5t-20 -38.5h-528q-11 0 -16.5 38t8.5 42q12 6 36 15t38.5 15t33.5 19.5t29.5 30.5
t18.5 46.5t8 67.5v766q0 41 -3 75.5t-6.5 56t-12.5 47t-13 35.5t-16 34t-15 31q-11 16 -23.5 31.5t-18 22.5t-5.5 9q0 19 11.5 35.5t37.5 16.5h164q30 0 47 -19l938 -940v688q0 33 -5.5 59t-21 44.5t-28 30t-41 22t-45 15.5t-54.5 14l-24 6q-12 3 -7.5 41.5t19.5 38.5h529z
" />
    <glyph glyph-name="eng" unicode="&#x14b;" horiz-adv-x="1271" 
d="M733 -440q-8 0 -19 18.5t-14.5 34.5t2.5 20q66 8 108 96.5t42 258.5v598q0 126 -44 171.5t-155 45.5q-68 0 -124 -19.5t-56 -56.5v-500q0 -71 30.5 -108.5t98.5 -46.5q6 -4 6 -20t-6 -34t-14 -18h-504q-8 0 -14.5 18t-6.5 34t7 20q139 18 139 155v471q0 69 -33 96
t-104 35q-12 2 -8 35t16 35l369 92q18 3 26 -7.5t8 -29.5q0 -38 12 -53t37 -8q29 10 95 38t118.5 43t106.5 15q59 0 106 -17t76 -44.5t48 -65t26.5 -74.5t7.5 -77v-723q0 -102 -52.5 -201.5t-142.5 -163t-188 -63.5z" />
    <glyph glyph-name="Omacron" unicode="&#x14c;" horiz-adv-x="1720" 
d="M1153 1833q24 0 9 -50q-15 -53 -44 -74q-8 -7 -16 -7h-533q-24 0 -10 48q14 52 44 75q11 8 20 8h530zM858 -33q-210 0 -380 95t-267.5 264.5t-97.5 380.5q0 155 54.5 294t151 242t237.5 163t306 60q212 0 382 -94t267 -262.5t97 -380.5q0 -156 -54 -295.5t-150.5 -242.5
t-238 -163.5t-307.5 -60.5zM946 129q52 0 101.5 14.5t98.5 50t85 88t58 135t22 185.5q0 145 -46 277t-120.5 224.5t-172 147t-198.5 54.5q-52 0 -101.5 -14.5t-97.5 -49.5t-83.5 -87.5t-57.5 -135t-22 -184.5q0 -146 46 -278.5t120.5 -225t171 -147t196.5 -54.5z" />
    <glyph glyph-name="omacron" unicode="&#x14d;" horiz-adv-x="1206" 
d="M895 1352q24 0 9 -50q-15 -53 -44 -74q-8 -7 -16 -7h-533q-24 0 -10 48q14 52 44 75q11 8 20 8h530zM598 -33q-217 0 -361.5 139t-144.5 361q0 224 146 373t370 149q217 0 361.5 -139t144.5 -363q0 -222 -145 -371t-371 -149zM662 109q37 0 68 12.5t60 40.5t45.5 83.5
t16.5 133.5q0 202 -86.5 335.5t-222.5 133.5q-36 0 -67 -12t-60 -40.5t-45.5 -83t-16.5 -130.5q0 -204 86.5 -338.5t221.5 -134.5z" />
    <glyph glyph-name="Ohungarumlaut" unicode="&#x150;" horiz-adv-x="1720" 
d="M537 1686l178 266q17 25 70 -7.5t89 -82t13 -66.5l-262 -197q-20 -15 -61.5 25t-26.5 62zM938 1659l195 276q17 25 64 0.5t76.5 -67t6.5 -60.5l-274 -209q-20 -15 -51.5 11.5t-16.5 48.5zM858 -33q-210 0 -380 95t-267.5 264.5t-97.5 380.5q0 155 54.5 294t151 242
t237.5 163t306 60q212 0 382 -94t267 -262.5t97 -380.5q0 -156 -54 -295.5t-150.5 -242.5t-238 -163.5t-307.5 -60.5zM946 129q52 0 101.5 14.5t98.5 50t85 88t58 135t22 185.5q0 145 -46 277t-120.5 224.5t-172 147t-198.5 54.5q-52 0 -101.5 -14.5t-97.5 -49.5
t-83.5 -87.5t-57.5 -135t-22 -184.5q0 -146 46 -278.5t120.5 -225t171 -147t196.5 -54.5z" />
    <glyph glyph-name="ohungarumlaut" unicode="&#x151;" horiz-adv-x="1206" 
d="M279 1204l178 266q17 25 70 -7.5t89 -81.5t13 -66l-262 -197q-20 -15 -61.5 24.5t-26.5 61.5zM680 1178l194 276q17 25 64 0.5t77 -67t7 -60.5l-274 -209q-20 -15 -51.5 11.5t-16.5 48.5zM598 -33q-217 0 -361.5 139t-144.5 361q0 224 146 373t370 149q217 0 361.5 -139
t144.5 -363q0 -222 -145 -371t-371 -149zM662 109q37 0 68 12.5t60 40.5t45.5 83.5t16.5 133.5q0 202 -86.5 335.5t-222.5 133.5q-36 0 -67 -12t-60 -40.5t-45.5 -83t-16.5 -130.5q0 -204 86.5 -338.5t221.5 -134.5z" />
    <glyph glyph-name="OE" unicode="&#x152;" horiz-adv-x="2332" 
d="M2173 340q9 13 43.5 2t34.5 -33q0 -35 -17.5 -87t-46.5 -103.5t-73.5 -87.5t-92.5 -35q-278 12 -389 12q-20 0 -151 1t-214.5 0t-160.5 -5q-112 -37 -246 -37q-211 0 -381.5 95t-268 264.5t-97.5 380.5q0 124 34.5 238.5t100.5 208.5t156.5 164t208.5 109t251 39
q135 0 244 -36q57 -4 136.5 -5.5t139 -1.5t128 1t81.5 1q108 0 277.5 6t216.5 7q36 0 44.5 -22.5t-1.5 -59.5l-47 -197q-5 -23 -33.5 -23t-34.5 23q-19 57 -49 87t-98.5 46.5t-190.5 16.5q-95 0 -133.5 -30.5t-38.5 -102.5v-324q0 -37 17 -50.5t51 -13.5h51q116 0 216.5 20
t152.5 62q18 16 40.5 8.5t8.5 -38.5l-111 -258q-13 -30 -35.5 -30t-40.5 26q-32 48 -98 72t-147 24h-37q-34 0 -51 -13.5t-17 -50.5v-325q0 -90 42 -127t159 -37q95 0 179.5 24t141 61.5t91 70t55.5 63.5zM412 834q0 -146 45.5 -277.5t119.5 -222.5t170.5 -144t196.5 -53
q144 0 254 86q6 24 6 62v774q-84 113 -194 175t-230 62q-53 0 -103 -13.5t-99 -47.5t-85 -85t-58.5 -132.5t-22.5 -183.5z" />
    <glyph glyph-name="oe" unicode="&#x153;" horiz-adv-x="1830" 
d="M1698 166q8 2 17.5 -13.5t12 -30t-1.5 -18.5q-29 -12 -93.5 -47.5t-116.5 -62.5t-70 -27q-137 0 -261 37.5t-208 118.5q-150 -156 -379 -156q-217 0 -361.5 139t-144.5 361q0 224 146 373t370 149q116 0 214.5 -42.5t168.5 -119.5q145 162 385 162q88 0 155.5 -24.5
t103.5 -59.5t58.5 -80.5t29 -79t6.5 -63.5q0 -42 -13.5 -101.5t-34.5 -97.5l-563 -16q16 -83 56 -147.5t94.5 -103t116.5 -58t128 -19.5q53 0 185 27zM662 109q37 0 68 12.5t60 40.5t45.5 83.5t16.5 133.5q0 202 -86.5 335.5t-222.5 133.5q-36 0 -67 -12t-60 -40.5
t-45.5 -83t-16.5 -130.5q0 -204 86.5 -338.5t221.5 -134.5zM1300 842q-188 0 -192 -254l383 12q15 99 -38.5 170.5t-152.5 71.5z" />
    <glyph glyph-name="Racute" unicode="&#x154;" horiz-adv-x="1701" 
d="M698 1599q-20 -15 -61.5 25t-26.5 62l178 266q17 25 70.5 -7.5t89.5 -82t13 -66.5zM1663 57q11 0 9.5 -30.5t-9.5 -32.5q-314 -85 -481 129l-310 397q-64 84 -131.5 108.5t-183.5 26.5v-391q0 -51 17 -86t52 -54t68.5 -28t87.5 -16q7 -1 7 -21t-5.5 -39.5t-13.5 -19.5
h-668q-8 0 -14 19.5t-6 39.5t8 21q86 11 126 52.5t40 131.5v893q0 93 -41.5 135.5t-124.5 65.5q-8 2 -8.5 22.5t6 39.5t14.5 18q101 -13 240 -13q96 0 245 6.5t191 6.5q254 0 393.5 -98.5t139.5 -280.5q0 -82 -30.5 -149t-83.5 -110t-120 -67t-143 -28v-11q72 0 132 -35
t130 -122l287 -365q50 -61 98.5 -88t81.5 -27zM608 760q155 0 236.5 21t117 71.5t35.5 146.5q0 156 -81.5 237t-215.5 81q-84 0 -113.5 -36t-29.5 -124v-397h51z" />
    <glyph glyph-name="racute" unicode="&#x155;" horiz-adv-x="948" 
d="M324 1204l178 266q17 25 70 -7.5t89 -81.5t13 -66l-262 -197q-20 -15 -61.5 24.5t-26.5 61.5zM84 0q-8 0 -14.5 18t-6.5 34t7 20q139 18 139 180v446q0 69 -33 96t-104 35q-12 2 -8 35t16 35l369 92q17 3 25.5 -7t8.5 -26q0 -53 8.5 -84t30.5 -16q6 4 32 22t38 26
t36.5 23.5t40.5 23.5t36.5 18t37.5 14t31 4q24 0 65.5 -35t37.5 -61q-29 -186 -74 -186q-2 0 -9 6t-19.5 14.5t-29.5 16.5t-45 14t-61 6q-166 0 -166 -127v-385q0 -35 4 -59t17 -41.5t28.5 -28.5t45.5 -19.5t61 -14.5t83 -15q9 -1 13 -2q4 -4 4 -20t-13 -34t-32 -18h-600z
" />
    <glyph glyph-name="uni0156" unicode="&#x156;" horiz-adv-x="1701" 
d="M1663 57q11 0 9.5 -30.5t-9.5 -32.5q-314 -85 -481 129l-310 397q-64 84 -131.5 108.5t-183.5 26.5v-391q0 -51 17 -86t52 -54t68.5 -28t87.5 -16q7 -1 7 -21t-5.5 -39.5t-13.5 -19.5h-668q-8 0 -14 19.5t-6 39.5t8 21q86 11 126 52.5t40 131.5v893q0 93 -41.5 135.5
t-124.5 65.5q-8 2 -8.5 22.5t6 39.5t14.5 18q101 -13 240 -13q96 0 245 6.5t191 6.5q254 0 393.5 -98.5t139.5 -280.5q0 -82 -30.5 -149t-83.5 -110t-120 -67t-143 -28v-11q72 0 132 -35t130 -122l287 -365q50 -61 98.5 -88t81.5 -27zM608 760q155 0 236.5 21t117 71.5
t35.5 146.5q0 156 -81.5 237t-215.5 81q-84 0 -113.5 -36t-29.5 -124v-397h51zM893 -82q44 0 109 -65t65 -113q0 -121 -101.5 -266.5t-246.5 -239.5q-16 -9 -47 11q-30 23 -15 40q78 69 138.5 153t60.5 152q0 19 -22 39.5t-48.5 35t-48.5 36t-22 41.5q0 48 67 112t111 64z
" />
    <glyph glyph-name="uni0157" unicode="&#x157;" horiz-adv-x="948" 
d="M84 0q-8 0 -14.5 18t-6.5 34t7 20q139 18 139 180v446q0 69 -33 96t-104 35q-12 2 -8 35t16 35l369 92q17 3 25.5 -7t8.5 -26q0 -53 8.5 -84t30.5 -16q6 4 32 22t38 26t36.5 23.5t40.5 23.5t36.5 18t37.5 14t31 4q24 0 65.5 -35t37.5 -61q-29 -186 -74 -186q-2 0 -9 6
t-19.5 14.5t-29.5 16.5t-45 14t-61 6q-166 0 -166 -127v-385q0 -35 4 -59t17 -41.5t28.5 -28.5t45.5 -19.5t61 -14.5t83 -15q9 -1 13 -2q4 -4 4 -20t-13 -34t-32 -18h-600zM143 -766q-15 -9 -46 11q-31 21 -18 37q1 2 3 3q78 69 138.5 153t60.5 152q0 19 -22 39.5t-49 35
t-49 36t-22 41.5q0 48 67 112t111 64t109.5 -65t65.5 -113q0 -121 -102 -266.5t-247 -239.5z" />
    <glyph glyph-name="Rcaron" unicode="&#x158;" horiz-adv-x="1701" 
d="M723 1606l-191 276q-15 22 30.5 56t66.5 14l164 -150l161 150q21 20 67.5 -14t31.5 -56l-193 -276q-9 -12 -69 -11.5t-68 11.5zM1663 57q11 0 9.5 -30.5t-9.5 -32.5q-314 -85 -481 129l-310 397q-64 84 -131.5 108.5t-183.5 26.5v-391q0 -51 17 -86t52 -54t68.5 -28
t87.5 -16q7 -1 7 -21t-5.5 -39.5t-13.5 -19.5h-668q-8 0 -14 19.5t-6 39.5t8 21q86 11 126 52.5t40 131.5v893q0 93 -41.5 135.5t-124.5 65.5q-8 2 -8.5 22.5t6 39.5t14.5 18q101 -13 240 -13q96 0 245 6.5t191 6.5q254 0 393.5 -98.5t139.5 -280.5q0 -82 -30.5 -149
t-83.5 -110t-120 -67t-143 -28v-11q72 0 132 -35t130 -122l287 -365q50 -61 98.5 -88t81.5 -27zM608 760q155 0 236.5 21t117 71.5t35.5 146.5q0 156 -81.5 237t-215.5 81q-84 0 -113.5 -36t-29.5 -124v-397h51z" />
    <glyph glyph-name="rcaron" unicode="&#x159;" horiz-adv-x="948" 
d="M766 1401l-193 -277q-9 -12 -69 -11.5t-68 11.5l-190 277q-15 22 30 55.5t66 13.5l164 -149l162 149q21 20 67 -13.5t31 -55.5zM84 0q-8 0 -14.5 18t-6.5 34t7 20q139 18 139 180v446q0 69 -33 96t-104 35q-12 2 -8 35t16 35l369 92q17 3 25.5 -7t8.5 -26q0 -53 8.5 -84
t30.5 -16q6 4 32 22t38 26t36.5 23.5t40.5 23.5t36.5 18t37.5 14t31 4q24 0 65.5 -35t37.5 -61q-29 -186 -74 -186q-2 0 -9 6t-19.5 14.5t-29.5 16.5t-45 14t-61 6q-166 0 -166 -127v-385q0 -35 4 -59t17 -41.5t28.5 -28.5t45.5 -19.5t61 -14.5t83 -15q9 -1 13 -2
q4 -4 4 -20t-13 -34t-32 -18h-600z" />
    <glyph glyph-name="Sacute" unicode="&#x15a;" horiz-adv-x="1165" 
d="M412 1686l178 266q17 25 70 -7.5t89 -82t13 -66.5l-262 -197q-20 -15 -61.5 25t-26.5 62zM535 -33q-87 0 -185.5 20t-168 59.5t-56.5 84.5l22 84q13 50 28 70t36 15t44.5 -23.5t60.5 -46.5t78.5 -53.5t103.5 -43.5t129 -18q219 0 219 182q0 57 -37.5 96t-167.5 123
l-147 102q-84 55 -130.5 88.5t-94.5 75t-71 76t-37 78t-14 94.5q0 96 45.5 179.5t118.5 138.5t163.5 86.5t182.5 31.5q77 0 160 -19.5t135.5 -53t40.5 -66.5l-26 -82q-18 -54 -36.5 -72t-37 -8.5t-49 33t-64.5 51t-91.5 48t-121.5 20.5q-94 0 -145 -43.5t-51 -120.5
q0 -68 41 -113.5t151 -115.5l174 -117q93 -60 149.5 -103.5t99 -91t60 -95.5t17.5 -107q0 -96 -44 -180t-117 -141t-169 -89.5t-198 -32.5z" />
    <glyph glyph-name="sacute" unicode="&#x15b;" horiz-adv-x="935" 
d="M295 1204l178 266q17 25 70 -7.5t89 -81.5t13 -66l-262 -197q-20 -15 -61.5 24.5t-26.5 61.5zM428 -33q-85 0 -165.5 20t-125.5 50t-33 59l48 119q9 19 21 23t28 -4.5t35 -23.5t46 -34t56.5 -35.5t70.5 -27.5t85 -11q85 0 128.5 28.5t32 69.5t-74.5 74l-281 142
q-78 40 -125 99.5t-58.5 122t9 126t68.5 113.5t130.5 81t184.5 31q76 0 148 -17.5t112 -46t27 -57.5l-50 -116q-13 -28 -32.5 -28t-48 19.5t-61 43t-83.5 43.5t-104 20q-65 0 -98.5 -29t-21.5 -67.5t66 -65.5l293 -151q83 -42 132.5 -102.5t61 -123t-11 -125t-74.5 -110.5
t-139.5 -78.5t-195.5 -30.5z" />
    <glyph glyph-name="Scedilla" unicode="&#x15e;" horiz-adv-x="1165" 
d="M508 -33q-23 -11 -23 -30q0 -20 21.5 -43t46.5 -42.5t46.5 -54.5t21.5 -76q0 -66 -61 -121t-154 -55q-90 0 -144 53q-34 34 -23 57q8 14 33 13q92 -4 124 18.5t32 71.5q0 37 -16 66t-31.5 52t-15.5 44q0 35 45 57q-78 12 -144 33t-108 53.5t-33 67.5l22 84q13 50 28 70
t36 15t44.5 -23.5t60.5 -46.5t78.5 -53.5t103.5 -43.5t129 -18q219 0 219 182q0 57 -37.5 96t-167.5 123l-147 102q-84 55 -130.5 88.5t-94.5 75t-71 76t-37 78t-14 94.5q0 96 45.5 179.5t118.5 138.5t163.5 86.5t182.5 31.5q77 0 160 -19.5t135.5 -53t40.5 -66.5l-26 -82
q-18 -54 -36.5 -72t-37 -8.5t-49 33t-64.5 51t-91.5 48t-121.5 20.5q-94 0 -145 -43.5t-51 -120.5q0 -68 41 -113.5t151 -115.5l174 -117q93 -60 149.5 -103.5t99 -91t60 -95.5t17.5 -107q0 -96 -44 -180t-117 -141t-169 -89.5t-198 -32.5h-27z" />
    <glyph glyph-name="scedilla" unicode="&#x15f;" horiz-adv-x="935" 
d="M485 -31q-26 -10 -26 -32q0 -16 14 -33.5t33.5 -34.5t39.5 -36.5t34 -48.5t14 -63q0 -66 -61 -121t-154 -55q-89 0 -143 52q-34 34 -23 57q7 15 33 14q92 -4 123.5 18.5t31.5 71.5q0 37 -15.5 66t-31.5 52t-16 44q0 29 33 49q-117 9 -200.5 48.5t-66.5 78.5l48 119
q9 19 21 23t28 -4.5t35 -23.5t46 -34t56.5 -35.5t70.5 -27.5t85 -11q85 0 128.5 28.5t32 69.5t-74.5 74l-281 142q-78 40 -125 99.5t-58.5 122t9 126t68.5 113.5t130.5 81t184.5 31q76 0 148 -17.5t112 -46t27 -57.5l-50 -116q-13 -28 -32.5 -28t-48 19.5t-61 43t-83.5 43.5
t-104 20q-65 0 -98.5 -29t-21.5 -67.5t66 -65.5l293 -151q80 -40 129 -97t62.5 -116.5t-4 -120t-62 -109.5t-121.5 -83t-174 -42z" />
    <glyph glyph-name="Scaron" unicode="&#x160;" horiz-adv-x="1165" 
d="M854 1882l-192 -276q-9 -12 -69.5 -11.5t-68.5 11.5l-190 276q-15 22 30 56t66 14l164 -150l162 150q21 20 67 -14t31 -56zM535 -33q-87 0 -185.5 20t-168 59.5t-56.5 84.5l22 84q13 50 28 70t36 15t44.5 -23.5t60.5 -46.5t78.5 -53.5t103.5 -43.5t129 -18q219 0 219 182
q0 57 -37.5 96t-167.5 123l-147 102q-84 55 -130.5 88.5t-94.5 75t-71 76t-37 78t-14 94.5q0 96 45.5 179.5t118.5 138.5t163.5 86.5t182.5 31.5q77 0 160 -19.5t135.5 -53t40.5 -66.5l-26 -82q-18 -54 -36.5 -72t-37 -8.5t-49 33t-64.5 51t-91.5 48t-121.5 20.5
q-94 0 -145 -43.5t-51 -120.5q0 -68 41 -113.5t151 -115.5l174 -117q93 -60 149.5 -103.5t99 -91t60 -95.5t17.5 -107q0 -96 -44 -180t-117 -141t-169 -89.5t-198 -32.5z" />
    <glyph glyph-name="scaron" unicode="&#x161;" horiz-adv-x="935" 
d="M737 1401l-192 -277q-9 -12 -69 -11.5t-68 11.5l-191 277q-15 22 30 55.5t66 13.5l164 -149l162 149q21 20 67 -13.5t31 -55.5zM428 -33q-85 0 -165.5 20t-125.5 50t-33 59l48 119q9 19 21 23t28 -4.5t35 -23.5t46 -34t56.5 -35.5t70.5 -27.5t85 -11q85 0 128.5 28.5
t32 69.5t-74.5 74l-281 142q-78 40 -125 99.5t-58.5 122t9 126t68.5 113.5t130.5 81t184.5 31q76 0 148 -17.5t112 -46t27 -57.5l-50 -116q-13 -28 -32.5 -28t-48 19.5t-61 43t-83.5 43.5t-104 20q-65 0 -98.5 -29t-21.5 -67.5t66 -65.5l293 -151q83 -42 132.5 -102.5
t61 -123t-11 -125t-74.5 -110.5t-139.5 -78.5t-195.5 -30.5z" />
    <glyph glyph-name="uni0162" unicode="&#x162;" horiz-adv-x="1421" 
d="M377 0q-8 0 -14.5 19t-6 38.5t8.5 20.5q122 17 178.5 49t56.5 109v983q0 40 -15.5 54.5t-52.5 14.5h-38q-128 0 -223 -38t-119 -95q-12 -31 -51 -32q-33 -1 -40 19v13q35 116 50 258q3 31 15.5 36t47.5 1q99 -10 200 -13t388 -3q476 0 651 16q19 1 34.5 2t22.5 -8.5
t0 -30.5q-45 -146 -65 -258q-5 -27 -37.5 -28.5t-40.5 28.5q-19 56 -94 94.5t-193 38.5h-49q-40 0 -61 -15t-21 -54v-983q0 -33 11.5 -57.5t30 -40.5t50.5 -28t65 -18.5t81 -13.5q7 -4 7.5 -21t-6.5 -37t-15 -20h-756zM575 -455q-89 0 -143 52q-34 34 -23 57q7 15 33 14
q92 -4 124 18.5t32 71.5q0 37 -16 66t-31.5 52t-15.5 44q0 33 42 56t109 24v-29q-31 -11 -31 -34q0 -20 21.5 -43t46.5 -42.5t46.5 -54.5t21.5 -76q0 -66 -61.5 -121t-154.5 -55z" />
    <glyph glyph-name="uni0163" unicode="&#x163;" horiz-adv-x="917" 
d="M831 156q7 1 16.5 -17.5t11 -36t-8.5 -24.5q-115 -43 -318 -94q-8 -8 -8 -19q0 -16 14 -33.5t34 -34.5t39.5 -36.5t33.5 -48t14 -62.5q0 -66 -61 -121t-154 -55q-89 0 -143 52q-34 34 -23 57q7 15 33 14q92 -4 124 18.5t32 71.5q0 37 -16 66t-32 52t-16 44q0 10 7 24
q-65 14 -121 54.5t-56 76.5v582q0 91 -33.5 122.5t-136.5 31.5q-18 0 -20 35t12 40q119 43 199 99t172 155q17 16 37.5 14.5t36 -18t10.5 -35.5q-14 -57 -14 -92q0 -57 20.5 -77.5t58.5 -20.5q37 0 126.5 12.5t117.5 14.5q31 3 31 -47q0 -28 -10 -61.5t-26 -56.5t-32 -22
l-96 8q-56 3 -99 3.5t-68 -21.5t-25 -70v-456q0 -58 18 -82.5t74 -24.5q96 0 245 19z" />
    <glyph glyph-name="Tcaron" unicode="&#x164;" horiz-adv-x="1421" 
d="M979 1882l-191 -276q-9 -12 -69 -11.5t-68 11.5l-192 276q-10 14 10 37t45 33t41 0l164 -150l164 150q21 20 66 -14t30 -56zM377 0q-8 0 -14.5 19t-6 38.5t8.5 20.5q122 17 178.5 49t56.5 109v983q0 40 -15.5 54.5t-52.5 14.5h-38q-128 0 -223 -38t-119 -95
q-12 -31 -51 -32q-33 -1 -40 19v13q35 116 50 258q3 31 15.5 36t47.5 1q99 -10 200 -13t388 -3q476 0 651 16q19 1 34.5 2t22.5 -8.5t0 -30.5q-45 -146 -65 -258q-5 -27 -37.5 -28.5t-40.5 28.5q-19 56 -94 94.5t-193 38.5h-49q-40 0 -61 -15t-21 -54v-983q0 -33 11.5 -57.5
t30 -40.5t50.5 -28t65 -18.5t81 -13.5q7 -4 7.5 -21t-6.5 -37t-15 -20h-756z" />
    <glyph glyph-name="tcaron" unicode="&#x165;" horiz-adv-x="976" 
d="M594 1020q-10 -5 -30 3.5t-32 23.5t0 26q79 70 139 152.5t60 150.5q0 19 -22 39.5t-48.5 35.5t-48.5 36t-22 41q0 48 67 112t111 64q45 0 109.5 -64.5t64.5 -113.5q0 -121 -101.5 -265.5t-246.5 -240.5zM457 -33q-71 0 -147.5 46.5t-76.5 90.5v582q0 91 -33.5 122.5
t-136.5 31.5q-18 0 -20 35t12 40q119 43 199 99t172 155q17 16 37.5 14.5t36 -18t10.5 -35.5q-14 -57 -14 -92q0 -57 20.5 -77.5t58.5 -20.5q37 0 126.5 12.5t117.5 14.5q31 3 31 -47q0 -28 -10 -61.5t-26 -56.5t-32 -22l-96 8q-56 3 -99 3.5t-68 -21.5t-25 -70v-456
q0 -58 18 -82.5t74 -24.5q96 0 245 19q7 1 16.5 -17.5t11 -36t-8.5 -24.5q-169 -61 -393 -111z" />
    <glyph glyph-name="Tbar" unicode="&#x166;" horiz-adv-x="1536" 
d="M1413 1450q19 1 34.5 2t22.5 -8.5t0 -30.5q-45 -146 -65 -258q-5 -27 -37.5 -28.5t-40.5 28.5q-19 56 -94 94.5t-193 38.5h-49q-40 0 -61 -15t-21 -54v-404h303q9 0 18.5 -27t10.5 -50t-8 -27h-324v-475q0 -33 11.5 -57.5t30 -40.5t50.5 -28t65 -18.5t81 -13.5
q7 -4 7.5 -21t-6.5 -37t-15 -20h-756q-8 0 -14.5 19t-6 38.5t8.5 20.5q122 17 178.5 49t56.5 109v475h-281q-9 0 -18.5 27t-10 50t8.5 27h301v404q0 40 -15.5 54.5t-52.5 14.5h-38q-128 0 -223 -38t-119 -95q-12 -31 -51 -32q-33 -1 -40 19v13q35 116 50 258q3 31 15.5 36
t47.5 1q99 -10 200 -13t388 -3q476 0 651 16z" />
    <glyph glyph-name="tbar" unicode="&#x167;" horiz-adv-x="917" 
d="M831 156q7 1 16.5 -17.5t11 -36t-8.5 -24.5q-169 -61 -393 -111q-71 0 -147.5 46.5t-76.5 90.5v302h-155q-9 0 -20.5 35t-14 65t5.5 35h184v145q0 91 -33.5 122.5t-136.5 31.5q-18 0 -20 35t12 40q119 43 199 99t172 155q17 16 37.5 14.5t36 -18t10.5 -35.5
q-14 -57 -14 -92q0 -57 20.5 -77.5t58.5 -20.5q37 0 126.5 12.5t117.5 14.5q31 3 31 -47q0 -28 -10 -61.5t-26 -56.5t-32 -22l-96 8q-56 3 -99 3.5t-68 -21.5t-25 -70v-159h325q9 0 20.5 -35t14 -65t-5.5 -35h-354v-162q0 -58 18 -82.5t74 -24.5q96 0 245 19z" />
    <glyph glyph-name="Utilde" unicode="&#x168;" horiz-adv-x="1689" 
d="M1083 1911q5 5 24 -4.5t34.5 -22.5t11.5 -18q-12 -16 -35 -45.5t-35 -44.5t-29.5 -35.5t-33.5 -35t-33 -26.5q-47 0 -134 36t-120 36q-23 0 -62 -20t-67 -48q-5 -5 -24.5 4.5t-35.5 23t-12 18.5q11 14 34.5 44.5t35 45t29.5 35.5t34 35t33 26q48 0 135 -36t119 -36
q23 0 63.5 20.5t67.5 47.5zM870 -33q-92 0 -179.5 19t-170 63t-143.5 109t-98 163.5t-37 219.5v628q0 90 -40 133t-122 52q-8 1 -8 21t6 39.5t14 19.5h610q8 0 14.5 -20.5t6 -38t-7.5 -21.5q-76 -9 -121 -48.5t-45 -136.5v-639q0 -200 99.5 -299.5t256.5 -99.5
q79 0 145.5 23.5t118.5 70.5t81.5 125t29.5 180v639q0 90 -45.5 131.5t-128.5 53.5q-7 1 -7 21t5.5 39.5t13.5 19.5h484q10 0 14.5 -39t-6.5 -41q-33 -4 -58.5 -13.5t-50 -29t-38 -55.5t-13.5 -87v-624q0 -186 -76 -318t-205.5 -196t-298.5 -64z" />
    <glyph glyph-name="utilde" unicode="&#x169;" horiz-adv-x="1331" 
d="M893 1430q5 5 24.5 -4.5t35.5 -23t12 -18.5q-11 -14 -34.5 -44.5t-35 -45t-29.5 -35.5t-34 -35t-33 -26q-47 0 -134 36t-120 36q-23 0 -62 -20t-67 -48q-5 -5 -24.5 4.5t-35.5 22.5t-12 18q12 16 35 45.5t35 44.5t29.5 35.5t33.5 35t33 26.5q48 0 135 -36t119 -36
q23 0 63.5 20.5t65.5 47.5zM449 -33q-63 0 -111.5 24t-76 64t-41 87.5t-13.5 99.5v446q0 36 -16 63.5t-40.5 42.5t-44 22.5t-36.5 10.5q-9 1 -6.5 33t14.5 33l362 96q19 6 33.5 -7t9.5 -30q-11 -42 -14 -84t-0.5 -96.5t2.5 -60.5v-383q0 -39 1.5 -62.5t9 -50t21 -40t38 -23
t59.5 -9.5q40 0 78 5.5t81 19t69 44t26 73.5v403q0 36 -15.5 63.5t-40 42.5t-44 22.5t-37.5 10.5q-9 1 -6.5 33t14.5 33l362 96q19 6 33.5 -7t9.5 -30q-11 -42 -14 -86t-0.5 -101.5t2.5 -62.5v-479q0 -47 14.5 -74t35.5 -32t45 -6.5t42.5 3t28.5 -2.5q16 -8 16 -35
q0 -31 -107 -70t-179 -39q-21 0 -46.5 22.5t-45 45.5t-50.5 37t-63 -4q-225 -101 -360 -101z" />
    <glyph glyph-name="Umacron" unicode="&#x16a;" horiz-adv-x="1689" 
d="M1137 1833q24 0 9 -50q-16 -53 -45 -74q-8 -7 -16 -7h-532q-24 0 -11 48q15 52 45 75q10 8 19 8h531zM870 -33q-92 0 -179.5 19t-170 63t-143.5 109t-98 163.5t-37 219.5v628q0 90 -40 133t-122 52q-8 1 -8 21t6 39.5t14 19.5h610q8 0 14.5 -20.5t6 -38t-7.5 -21.5
q-76 -9 -121 -48.5t-45 -136.5v-639q0 -200 99.5 -299.5t256.5 -99.5q79 0 145.5 23.5t118.5 70.5t81.5 125t29.5 180v639q0 90 -45.5 131.5t-128.5 53.5q-7 1 -7 21t5.5 39.5t13.5 19.5h484q10 0 14.5 -39t-6.5 -41q-33 -4 -58.5 -13.5t-50 -29t-38 -55.5t-13.5 -87v-624
q0 -186 -76 -318t-205.5 -196t-298.5 -64z" />
    <glyph glyph-name="umacron" unicode="&#x16b;" horiz-adv-x="1331" 
d="M948 1352q24 0 9 -50q-15 -53 -44 -74q-8 -7 -16 -7h-532q-24 0 -11 48q15 52 45 75q10 8 19 8h530zM449 -33q-63 0 -111.5 24t-76 64t-41 87.5t-13.5 99.5v446q0 36 -16 63.5t-40.5 42.5t-44 22.5t-36.5 10.5q-9 1 -6.5 33t14.5 33l362 96q19 6 33.5 -7t9.5 -30
q-11 -42 -14 -84t-0.5 -96.5t2.5 -60.5v-383q0 -39 1.5 -62.5t9 -50t21 -40t38 -23t59.5 -9.5q40 0 78 5.5t81 19t69 44t26 73.5v403q0 36 -15.5 63.5t-40 42.5t-44 22.5t-37.5 10.5q-9 1 -6.5 33t14.5 33l362 96q19 6 33.5 -7t9.5 -30q-11 -42 -14 -86t-0.5 -101.5
t2.5 -62.5v-479q0 -47 14.5 -74t35.5 -32t45 -6.5t42.5 3t28.5 -2.5q16 -8 16 -35q0 -31 -107 -70t-179 -39q-21 0 -46.5 22.5t-45 45.5t-50.5 37t-63 -4q-225 -101 -360 -101z" />
    <glyph glyph-name="Ubreve" unicode="&#x16c;" horiz-adv-x="1689" 
d="M1098 1950q14 0 21 -1.5t14.5 -8.5t10.5 -22.5t3 -41.5q0 -41 -16.5 -83.5t-50 -82.5t-95 -65t-141.5 -25t-141.5 25t-95 65t-50 82.5t-16.5 83.5q0 34 6.5 51t15 20t27.5 3q30 0 44.5 -3.5t17.5 -11t2.5 -18t0.5 -25.5q6 -51 57 -83.5t132 -32.5t131.5 32.5t56.5 83.5
q1 15 0.5 25.5t3 18t18 11t44.5 3.5zM870 -33q-92 0 -179.5 19t-170 63t-143.5 109t-98 163.5t-37 219.5v628q0 90 -40 133t-122 52q-8 1 -8 21t6 39.5t14 19.5h610q8 0 14.5 -20.5t6 -38t-7.5 -21.5q-76 -9 -121 -48.5t-45 -136.5v-639q0 -200 99.5 -299.5t256.5 -99.5
q79 0 145.5 23.5t118.5 70.5t81.5 125t29.5 180v639q0 90 -45.5 131.5t-128.5 53.5q-7 1 -7 21t5.5 39.5t13.5 19.5h484q10 0 14.5 -39t-6.5 -41q-33 -4 -58.5 -13.5t-50 -29t-38 -55.5t-13.5 -87v-624q0 -186 -76 -318t-205.5 -196t-298.5 -64z" />
    <glyph glyph-name="ubreve" unicode="&#x16d;" horiz-adv-x="1331" 
d="M909 1468q19 0 27.5 -3t15 -19.5t6.5 -50.5q0 -41 -16.5 -83.5t-50 -82.5t-95 -65t-141.5 -25t-141.5 25t-95 65t-50 82.5t-16.5 83.5q0 34 6.5 50.5t15 19.5t27.5 3q30 0 44.5 -3.5t18 -10.5t3 -17.5t0.5 -25.5q6 -51 56.5 -84t131.5 -33t132 33t57 84q1 15 0.5 25.5
t2.5 17.5t17.5 10.5t44.5 3.5zM449 -33q-63 0 -111.5 24t-76 64t-41 87.5t-13.5 99.5v446q0 36 -16 63.5t-40.5 42.5t-44 22.5t-36.5 10.5q-9 1 -6.5 33t14.5 33l362 96q19 6 33.5 -7t9.5 -30q-11 -42 -14 -84t-0.5 -96.5t2.5 -60.5v-383q0 -39 1.5 -62.5t9 -50t21 -40
t38 -23t59.5 -9.5q40 0 78 5.5t81 19t69 44t26 73.5v403q0 36 -15.5 63.5t-40 42.5t-44 22.5t-37.5 10.5q-9 1 -6.5 33t14.5 33l362 96q19 6 33.5 -7t9.5 -30q-11 -42 -14 -86t-0.5 -101.5t2.5 -62.5v-479q0 -47 14.5 -74t35.5 -32t45 -6.5t42.5 3t28.5 -2.5q16 -8 16 -35
q0 -31 -107 -70t-179 -39q-21 0 -46.5 22.5t-45 45.5t-50.5 37t-63 -4q-225 -101 -360 -101z" />
    <glyph glyph-name="Uring" unicode="&#x16e;" horiz-adv-x="1689" 
d="M844 1599q-71 0 -118.5 47t-47.5 119t47.5 119t118.5 47t118.5 -47t47.5 -119t-47.5 -119t-118.5 -47zM844 1698q28 0 47.5 19.5t19.5 47.5t-19.5 48t-47.5 20t-48 -20t-20 -48t20 -47.5t48 -19.5zM870 -33q-92 0 -179.5 19t-170 63t-143.5 109t-98 163.5t-37 219.5v628
q0 90 -40 133t-122 52q-8 1 -8 21t6 39.5t14 19.5h610q8 0 14.5 -20.5t6 -38t-7.5 -21.5q-76 -9 -121 -48.5t-45 -136.5v-639q0 -200 99.5 -299.5t256.5 -99.5q79 0 145.5 23.5t118.5 70.5t81.5 125t29.5 180v639q0 90 -45.5 131.5t-128.5 53.5q-7 1 -7 21t5.5 39.5
t13.5 19.5h484q10 0 14.5 -39t-6.5 -41q-33 -4 -58.5 -13.5t-50 -29t-38 -55.5t-13.5 -87v-624q0 -186 -76 -318t-205.5 -196t-298.5 -64z" />
    <glyph glyph-name="uring" unicode="&#x16f;" horiz-adv-x="1331" 
d="M655 1118q-71 0 -118.5 47t-47.5 119t47.5 119t118.5 47t118.5 -47t47.5 -119t-47.5 -119t-118.5 -47zM655 1217q28 0 48 19.5t20 47.5t-20 48t-48 20t-47.5 -20t-19.5 -48t19.5 -47.5t47.5 -19.5zM449 -33q-63 0 -111.5 24t-76 64t-41 87.5t-13.5 99.5v446
q0 36 -16 63.5t-40.5 42.5t-44 22.5t-36.5 10.5q-9 1 -6.5 33t14.5 33l362 96q19 6 33.5 -7t9.5 -30q-11 -42 -14 -84t-0.5 -96.5t2.5 -60.5v-383q0 -39 1.5 -62.5t9 -50t21 -40t38 -23t59.5 -9.5q40 0 78 5.5t81 19t69 44t26 73.5v403q0 36 -15.5 63.5t-40 42.5t-44 22.5
t-37.5 10.5q-9 1 -6.5 33t14.5 33l362 96q19 6 33.5 -7t9.5 -30q-11 -42 -14 -86t-0.5 -101.5t2.5 -62.5v-479q0 -47 14.5 -74t35.5 -32t45 -6.5t42.5 3t28.5 -2.5q16 -8 16 -35q0 -31 -107 -70t-179 -39q-21 0 -46.5 22.5t-45 45.5t-50.5 37t-63 -4q-225 -101 -360 -101z
" />
    <glyph glyph-name="Uhungarumlaut" unicode="&#x170;" horiz-adv-x="1689" 
d="M520 1686l178 266q17 25 70 -7.5t89 -82t13 -66.5l-262 -197q-20 -15 -61.5 25t-26.5 62zM922 1659l194 276q17 25 64 0.5t77 -67t7 -60.5l-275 -209q-20 -15 -51 11.5t-16 48.5zM870 -33q-92 0 -179.5 19t-170 63t-143.5 109t-98 163.5t-37 219.5v628q0 90 -40 133
t-122 52q-8 1 -8 21t6 39.5t14 19.5h610q8 0 14.5 -20.5t6 -38t-7.5 -21.5q-76 -9 -121 -48.5t-45 -136.5v-639q0 -200 99.5 -299.5t256.5 -99.5q79 0 145.5 23.5t118.5 70.5t81.5 125t29.5 180v639q0 90 -45.5 131.5t-128.5 53.5q-7 1 -7 21t5.5 39.5t13.5 19.5h484
q10 0 14.5 -39t-6.5 -41q-33 -4 -58.5 -13.5t-50 -29t-38 -55.5t-13.5 -87v-624q0 -186 -76 -318t-205.5 -196t-298.5 -64z" />
    <glyph glyph-name="uhungarumlaut" unicode="&#x171;" horiz-adv-x="1331" 
d="M332 1204l178 266q17 25 70 -7.5t89 -81.5t13 -66l-262 -197q-20 -15 -61.5 24.5t-26.5 61.5zM733 1178l195 276q17 25 64 0.5t76.5 -67t6.5 -60.5l-274 -209q-20 -15 -51.5 11.5t-16.5 48.5zM449 -33q-63 0 -111.5 24t-76 64t-41 87.5t-13.5 99.5v446q0 36 -16 63.5
t-40.5 42.5t-44 22.5t-36.5 10.5q-9 1 -6.5 33t14.5 33l362 96q19 6 33.5 -7t9.5 -30q-11 -42 -14 -84t-0.5 -96.5t2.5 -60.5v-383q0 -39 1.5 -62.5t9 -50t21 -40t38 -23t59.5 -9.5q40 0 78 5.5t81 19t69 44t26 73.5v403q0 36 -15.5 63.5t-40 42.5t-44 22.5t-37.5 10.5
q-9 1 -6.5 33t14.5 33l362 96q19 6 33.5 -7t9.5 -30q-11 -42 -14 -86t-0.5 -101.5t2.5 -62.5v-479q0 -47 14.5 -74t35.5 -32t45 -6.5t42.5 3t28.5 -2.5q16 -8 16 -35q0 -31 -107 -70t-179 -39q-21 0 -46.5 22.5t-45 45.5t-50.5 37t-63 -4q-225 -101 -360 -101z" />
    <glyph glyph-name="Uogonek" unicode="&#x172;" horiz-adv-x="1689" 
d="M1602 1434q10 0 14.5 -39t-6.5 -41q-33 -4 -58.5 -13.5t-50 -29t-38 -55.5t-13.5 -87v-624q0 -212 -95.5 -350.5t-262.5 -194.5h10q-13 -3 -40 -10q-54 -13 -81.5 -20.5t-75 -21.5t-72.5 -25t-58 -28.5t-49 -35t-28 -41.5t-12 -51q0 -45 27.5 -74t77.5 -29q53 0 94.5 31
t52.5 63q6 18 33 6q30 -13 33 -41q1 -10 -3 -20q-8 -21 -29.5 -47.5t-57 -56t-92 -49t-120.5 -19.5q-44 0 -86.5 9.5t-83.5 29.5t-66.5 60t-25.5 94q0 164 316 251q-81 12 -154 38t-140 72.5t-115 109t-76.5 151.5t-28.5 195v628q0 90 -40 133t-122 52q-8 1 -8 21t6 39.5
t14 19.5h610q8 0 14.5 -20.5t6 -38t-7.5 -21.5q-76 -9 -121 -48.5t-45 -136.5v-639q0 -200 99.5 -299.5t256.5 -99.5q79 0 145.5 23.5t118.5 70.5t81.5 125t29.5 180v639q0 90 -45.5 131.5t-128.5 53.5q-7 1 -7 21t5.5 39.5t13.5 19.5h484z" />
    <glyph glyph-name="uogonek" unicode="&#x173;" horiz-adv-x="1331" 
d="M1151 -8q-44 -15 -89.5 -39t-91 -56.5t-74 -74t-28.5 -82.5q0 -44 30.5 -69t72.5 -25q54 0 96.5 37t54.5 71q6 18 26 8q24 -13 23 -43q-1 -8 -4 -16q-8 -20 -28.5 -47t-51.5 -56t-75.5 -49t-91.5 -20q-33 0 -67 9.5t-67 29t-54 55.5t-21 82q0 47 19.5 86.5t68 76t72.5 51
t88 47.5q15 8 22 12q-11 7 -24.5 20.5t-24.5 26t-25.5 24.5t-28.5 19t-32 7t-37 -9q-225 -101 -360 -101q-63 0 -111.5 24t-76 64t-41 87.5t-13.5 99.5v446q0 36 -16 63.5t-40.5 42.5t-44 22.5t-36.5 10.5q-9 1 -6.5 33t14.5 33l362 96q19 6 33.5 -7t9.5 -30
q-11 -42 -14 -84t-0.5 -96.5t2.5 -60.5v-383q0 -39 1.5 -62.5t9 -50t21 -40t38 -23t59.5 -9.5q40 0 78 5.5t81 19t69 44t26 73.5v403q0 36 -15.5 63.5t-40 42.5t-44 22.5t-37.5 10.5q-9 1 -6.5 33t14.5 33l362 96q19 6 33.5 -7t9.5 -30q-11 -42 -14 -86t-0.5 -101.5
t2.5 -62.5v-479q0 -47 14.5 -74t35.5 -32t45 -6.5t42.5 3t28.5 -2.5q16 -8 16 -35q0 -19 -43 -42.5t-106 -41.5z" />
    <glyph glyph-name="Wcircumflex" unicode="&#x174;" horiz-adv-x="2385" 
d="M1032 1589q-21 -20 -66 14t-30 56l190 276q8 11 68.5 11.5t69.5 -11.5l192 -276q15 -22 -31 -56t-67 -14l-162 150zM2302 1434q20 0 23 -38t-17 -42q-34 -4 -59 -13.5t-52 -31t-51.5 -62t-46.5 -100.5l-307 -813q-45 -117 -59.5 -157t-27.5 -89.5t-13 -87.5q0 -9 -73 -25
t-77 -6l-319 805l-207 -440q-63 -135 -83 -201t-20 -133q0 -9 -73.5 -25t-77.5 -6l-477 1176q-47 117 -93.5 159t-113.5 52q-20 3 -17 40.5t23 37.5h586q20 0 22 -37t-16 -39q-84 -11 -104.5 -60.5t18.5 -150.5l303 -768l192 424q39 84 42 141t-31 150q-56 143 -99 196.5
t-90 65.5q-16 4 -14.5 41t20.5 37h478q28 0 28 -19q0 -8 -15 -31.5t-28 -51.5t-16.5 -77t20.5 -108l283 -731l270 731q14 37 20 66t6 49.5t-8.5 36t-17 24t-27 16t-31.5 10.5t-36 7q-18 3 -16 40.5t22 37.5h457z" />
    <glyph glyph-name="wcircumflex" unicode="&#x175;" horiz-adv-x="1994" 
d="M838 1108q-21 -20 -66.5 14t-30.5 56l191 276q8 11 68 11.5t69 -11.5l193 -276q10 -14 -10 -37t-45.5 -33t-41.5 0l-164 149zM1757 952q19 0 19 -40t-17 -44q-46 -13 -92 -66t-84 -147l-188 -458q-67 -157 -76 -201l-150 -21l-251 613l-164 -391q-59 -137 -74 -201
l-152 -21l-278 682q-78 186 -182 211q-17 3 -17 43.5t19 40.5h446q16 0 22.5 -19.5t1 -40t-19.5 -24.5q-67 -21 6 -211l142 -358l184 444q-29 67 -54 94.5t-71 30.5q-20 2 -20 43t22 41h426q24 0 24.5 -38t-20.5 -46q-66 -26 8 -211l140 -354l139 354q23 58 33 89t12.5 61
t-11.5 43.5t-46 17.5q-17 2 -17 43t19 41h321z" />
    <glyph glyph-name="Ycircumflex" unicode="&#x176;" horiz-adv-x="1585" 
d="M631 1589q-21 -20 -66 14t-30 56l190 276q8 11 68 11.5t69 -11.5l193 -276q15 -22 -31.5 -56t-67.5 -14l-161 150zM1501 1434q17 0 20 -38t-14 -42q-60 -8 -117 -55.5t-124 -151.5l-316 -492v-391q0 -52 13.5 -86.5t43.5 -53.5t62.5 -28t85.5 -16q7 -1 7 -21t-5.5 -39.5
t-13.5 -19.5h-688q-8 0 -14 20.5t-5.5 38t6.5 21.5q113 16 160 52.5t47 131.5v377l-336 504q-72 107 -122 153.5t-113 55.5q-20 4 -17 42t23 38h592q20 0 22 -38t-16 -42q-70 -10 -82 -60t47 -147l238 -356l231 356q39 60 39 105.5t-30 70t-83 31.5q-15 3 -19 23t3 38.5
t18 18.5h457z" />
    <glyph glyph-name="ycircumflex" unicode="&#x177;" horiz-adv-x="1347" 
d="M561 1108q-21 -20 -66 14t-30 56l190 276q8 11 68.5 11.5t69.5 -11.5l190 -276q15 -22 -30 -56t-66 -14l-162 149zM1130 952q21 0 22 -40t-17 -44q-93 -26 -174 -209l-396 -888q-24 -52 -63.5 -88t-83.5 -52t-79 -22t-67 -6q-83 0 -131 39t-75 110q-14 41 -13 56.5
t18 18.5t51 -3q61 -6 103 -6q74 0 128.5 13.5t104 53t79.5 107.5l-295 667q-46 105 -87.5 153t-86.5 56q-17 3 -17 43.5t19 40.5h460q23 0 24.5 -36t-19.5 -48q-28 -17 -39 -38.5t-4.5 -64t36.5 -106.5l150 -340l145 336q45 104 35 155t-78 58q-17 2 -17 43t19 41h348z" />
    <glyph glyph-name="Ydieresis" unicode="&#x178;" horiz-adv-x="1720" 
d="M686 1616q-43 0 -104.5 60t-61.5 108q0 45 62 104.5t104 59.5q43 0 104.5 -59.5t61.5 -104.5q0 -48 -61 -108t-105 -60zM1135 1616q-43 0 -104.5 60t-61.5 108q0 45 62 104.5t104 59.5q43 0 104 -59.5t61 -104.5q0 -48 -60.5 -108t-104.5 -60zM1501 1434q17 0 20 -38
t-14 -42q-60 -8 -117 -55.5t-124 -151.5l-316 -492v-391q0 -52 13.5 -86.5t43.5 -53.5t62.5 -28t85.5 -16q7 -1 7 -21t-5.5 -39.5t-13.5 -19.5h-688q-8 0 -14 20.5t-5.5 38t6.5 21.5q113 16 160 52.5t47 131.5v377l-336 504q-72 107 -122 153.5t-113 55.5q-20 4 -17 42
t23 38h592q20 0 22 -38t-16 -42q-70 -10 -82 -60t47 -147l238 -356l231 356q39 60 39 105.5t-30 70t-83 31.5q-15 3 -19 23t3 38.5t18 18.5h457z" />
    <glyph glyph-name="Zacute" unicode="&#x179;" horiz-adv-x="1353" 
d="M506 1686l178 266q17 25 70 -7.5t89 -82t13 -66.5l-262 -197q-20 -15 -61.5 25t-26.5 62zM1083 -12q-31 9 -72.5 15t-102 8t-102 2t-124.5 -0.5t-119 -0.5q-280 0 -483 -18q-13 -1 -24 23.5t-5 37.5l809 1223l-317 4q-87 1 -150 -7t-103.5 -26.5t-62.5 -35t-45 -42.5
q-18 -20 -49 -11.5t-22 36.5l73 223q8 25 38 31t48 -2q23 -6 51 -10.5t67.5 -7t66.5 -4.5t80.5 -2.5t74.5 -0.5h82h72q254 0 469 19q8 1 17 -11.5t12 -27t0 -23.5l-807 -1222l356 -4q113 -2 190 15.5t107.5 38.5t62.5 56q18 20 48.5 12t23.5 -36l-74 -224q-8 -25 -38 -30.5
t-48 2.5z" />
    <glyph glyph-name="zacute" unicode="&#x17a;" horiz-adv-x="1054" 
d="M440 1118q-20 -15 -61.5 24.5t-26.5 61.5l178 266q17 25 70 -7.5t89 -81.5t13 -66zM944 952q11 0 21.5 -35t1.5 -47l-633 -673h254q69 0 118.5 6t86.5 21.5t51 23.5t47 31q24 16 45.5 -4t9.5 -54l-72 -221q-16 -48 -83 -29q-61 18 -121 23.5t-160 5.5h-416q-14 0 -26 35
t0 47l632 674h-200q-89 0 -152 -13.5t-88 -27t-63 -41.5q-24 -16 -46 3.5t-10 53.5l74 221q17 49 82 29q108 -29 283 -29h364z" />
    <glyph glyph-name="Zdotaccent" unicode="&#x17b;" horiz-adv-x="1353" 
d="M680 1616q-43 0 -104.5 60t-61.5 108q0 45 62 104.5t104 59.5t104 -59.5t62 -104.5q0 -48 -61.5 -108t-104.5 -60zM1083 -12q-31 9 -72.5 15t-102 8t-102 2t-124.5 -0.5t-119 -0.5q-280 0 -483 -18q-13 -1 -24 23.5t-5 37.5l809 1223l-317 4q-87 1 -150 -7t-103.5 -26.5
t-62.5 -35t-45 -42.5q-18 -20 -49 -11.5t-22 36.5l73 223q8 25 38 31t48 -2q23 -6 51 -10.5t67.5 -7t66.5 -4.5t80.5 -2.5t74.5 -0.5h82h72q254 0 469 19q8 1 17 -11.5t12 -27t0 -23.5l-807 -1222l356 -4q113 -2 190 15.5t107.5 38.5t62.5 56q18 20 48.5 12t23.5 -36
l-74 -224q-8 -25 -38 -30.5t-48 2.5z" />
    <glyph glyph-name="zdotaccent" unicode="&#x17c;" horiz-adv-x="1060" 
d="M592 1135q-43 0 -104.5 60t-61.5 108q0 45 62 104t104 59t104 -59t62 -104q0 -48 -61.5 -108t-104.5 -60zM944 952q11 0 21.5 -35t1.5 -47l-633 -673h254q69 0 118.5 6t86.5 21.5t51 23.5t47 31q24 16 45.5 -4t9.5 -54l-72 -221q-16 -48 -83 -29q-61 18 -121 23.5
t-160 5.5h-416q-14 0 -26 35t0 47l632 674h-200q-89 0 -152 -13.5t-88 -27t-63 -41.5q-24 -16 -46 3.5t-10 53.5l74 221q17 49 82 29q108 -29 283 -29h364z" />
    <glyph glyph-name="Zcaron" unicode="&#x17d;" horiz-adv-x="1353" 
d="M948 1882l-192 -276q-9 -12 -69.5 -11.5t-68.5 11.5l-190 276q-15 22 30 56t66 14l164 -150l162 150q21 20 67 -14t31 -56zM1083 -12q-31 9 -72.5 15t-102 8t-102 2t-124.5 -0.5t-119 -0.5q-280 0 -483 -18q-13 -1 -24 23.5t-5 37.5l809 1223l-317 4q-87 1 -150 -7
t-103.5 -26.5t-62.5 -35t-45 -42.5q-18 -20 -49 -11.5t-22 36.5l73 223q8 25 38 31t48 -2q23 -6 51 -10.5t67.5 -7t66.5 -4.5t80.5 -2.5t74.5 -0.5h82h72q254 0 469 19q8 1 17 -11.5t12 -27t0 -23.5l-807 -1222l356 -4q113 -2 190 15.5t107.5 38.5t62.5 56q18 20 48.5 12
t23.5 -36l-74 -224q-8 -25 -38 -30.5t-48 2.5z" />
    <glyph glyph-name="zcaron" unicode="&#x17e;" horiz-adv-x="1054" 
d="M465 1124l-191 277q-15 22 30.5 55.5t66.5 13.5l164 -149l161 149q21 20 67.5 -13.5t31.5 -55.5l-193 -277q-9 -12 -69 -11.5t-68 11.5zM944 952q11 0 21.5 -35t1.5 -47l-633 -673h254q69 0 118.5 6t86.5 21.5t51 23.5t47 31q24 16 45.5 -4t9.5 -54l-72 -221
q-16 -48 -83 -29q-61 18 -121 23.5t-160 5.5h-416q-14 0 -26 35t0 47l632 674h-200q-89 0 -152 -13.5t-88 -27t-63 -41.5q-24 -16 -46 3.5t-10 53.5l74 221q17 49 82 29q108 -29 283 -29h364z" />
    <glyph glyph-name="uni01CD" unicode="&#x1cd;" horiz-adv-x="1640" 
d="M1112 1882l-192 -276q-9 -12 -69.5 -11.5t-68.5 11.5l-190 276q-15 22 30 56t66 14l164 -150l162 150q21 20 67 -14t31 -56zM1573 78q20 -3 17.5 -40.5t-21.5 -37.5h-592q-21 0 -21.5 37.5t15.5 40.5q23 4 37 8.5t33 13.5t27.5 23.5t14 36t-2 53.5t-25.5 74l-11 18
q-14 38 -33.5 49t-62.5 11h-401q-48 0 -68 -11t-37 -49l-6 -18q-20 -48 -24 -84t4 -57.5t28.5 -36t42.5 -21t54 -10.5q14 -2 17.5 -21.5t-3.5 -38t-20 -18.5h-461q-17 0 -20 37.5t14 40.5q34 6 56.5 15t48 30.5t49 61t50.5 102.5l346 805q61 135 83 204t22 127q0 9 71.5 25
t75.5 6l500 -1165q51 -118 94 -159.5t109 -51.5zM911 496q23 0 35 7t4 27l-205 496l-206 -496q-8 -20 4 -27t37 -7h331z" />
    <glyph glyph-name="uni01CE" unicode="&#x1ce;" horiz-adv-x="1155" 
d="M823 1401l-192 -277q-9 -12 -69 -11.5t-68 11.5l-191 277q-15 22 30 55.5t66 13.5l164 -149l162 149q21 20 67 -13.5t31 -55.5zM375 -33q-120 0 -201.5 65.5t-81.5 184.5q0 90 51.5 136.5t155.5 82.5l291 94q58 20 69 30q15 14 15 52v58q0 86 -34.5 113.5t-107.5 27.5
q-64 0 -173.5 -18.5t-131.5 -20.5q-34 -3 -37 25l-4 43q-3 29 83 65t201.5 60t195.5 24q53 0 95.5 -12.5t71 -31.5t49 -49t31.5 -58t17.5 -65t8 -64.5t1.5 -61.5v-424q0 -46 14.5 -72.5t35.5 -32t45.5 -7t43.5 2.5t29 -3q16 -8 16 -35q0 -31 -108 -70t-178 -39
q-48 0 -88.5 31t-79.5 111q-143 -93 -191.5 -117.5t-103.5 -24.5zM500 139q65 0 121.5 41.5t56.5 110.5v158q-3 -2 -6 -6t-11.5 -8t-31.5 -11l-189 -62q-25 -8 -44 -38.5t-19 -71.5q0 -50 34.5 -81.5t88.5 -31.5z" />
    <glyph glyph-name="uni01CF" unicode="&#x1cf;" horiz-adv-x="815" 
d="M676 1882l-193 -276q-9 -12 -69 -11.5t-68 11.5l-190 276q-15 22 30 56t66 14l164 -150l162 150q21 20 67 -14t31 -56zM102 0q-8 0 -14 19.5t-6 39.5t8 21q86 11 126 52.5t40 131.5v905q0 90 -40 132t-126 53q-8 1 -8 21t6 39.5t14 19.5h611q8 0 14 -19.5t6 -39.5t-8 -21
q-37 -5 -63.5 -14.5t-52 -28.5t-39 -55t-13.5 -87v-905q0 -51 13.5 -86.5t39 -55t52 -28.5t63.5 -14q8 -1 8 -21t-6 -39.5t-14 -19.5h-611z" />
    <glyph glyph-name="uni01D0" unicode="&#x1d0;" horiz-adv-x="679" 
d="M614 1401l-192 -277q-9 -12 -69 -11.5t-68 11.5l-191 277q-15 22 30 55.5t66 13.5l164 -149l162 149q21 20 67 -13.5t31 -55.5zM84 0q-8 0 -14.5 18t-6.5 34t7 20q141 18 141 155v428q0 94 -28 127.5t-107 42.5q-13 2 -8.5 33.5t16.5 34.5l399 92q16 2 22.5 -7.5
t2.5 -29.5q-33 -156 -33 -321v-400q0 -137 137 -155q6 -4 6 -20t-6 -34t-14 -18h-514z" />
    <glyph glyph-name="uni01D1" unicode="&#x1d1;" horiz-adv-x="1720" 
d="M1128 1882l-192 -276q-9 -12 -69 -11.5t-68 11.5l-191 276q-15 22 30.5 56t66.5 14l163 -150l162 150q21 20 67 -14t31 -56zM858 -33q-210 0 -380 95t-267.5 264.5t-97.5 380.5q0 155 54.5 294t151 242t237.5 163t306 60q212 0 382 -94t267 -262.5t97 -380.5
q0 -156 -54 -295.5t-150.5 -242.5t-238 -163.5t-307.5 -60.5zM946 129q52 0 101.5 14.5t98.5 50t85 88t58 135t22 185.5q0 145 -46 277t-120.5 224.5t-172 147t-198.5 54.5q-52 0 -101.5 -14.5t-97.5 -49.5t-83.5 -87.5t-57.5 -135t-22 -184.5q0 -146 46 -278.5t120.5 -225
t171 -147t196.5 -54.5z" />
    <glyph glyph-name="uni01D2" unicode="&#x1d2;" horiz-adv-x="1206" 
d="M870 1401l-192 -277q-9 -12 -69 -11.5t-68 11.5l-191 277q-15 22 30 55.5t66 13.5l164 -149l162 149q21 20 67 -13.5t31 -55.5zM598 -33q-217 0 -361.5 139t-144.5 361q0 224 146 373t370 149q217 0 361.5 -139t144.5 -363q0 -222 -145 -371t-371 -149zM662 109
q37 0 68 12.5t60 40.5t45.5 83.5t16.5 133.5q0 202 -86.5 335.5t-222.5 133.5q-36 0 -67 -12t-60 -40.5t-45.5 -83t-16.5 -130.5q0 -204 86.5 -338.5t221.5 -134.5z" />
    <glyph glyph-name="uni01D3" unicode="&#x1d3;" horiz-adv-x="1689" 
d="M1112 1882l-192 -276q-9 -12 -69.5 -11.5t-68.5 11.5l-190 276q-15 22 30 56t66 14l164 -150l162 150q21 20 67 -14t31 -56zM870 -33q-92 0 -179.5 19t-170 63t-143.5 109t-98 163.5t-37 219.5v628q0 90 -40 133t-122 52q-8 1 -8 21t6 39.5t14 19.5h610q8 0 14.5 -20.5
t6 -38t-7.5 -21.5q-76 -9 -121 -48.5t-45 -136.5v-639q0 -200 99.5 -299.5t256.5 -99.5q79 0 145.5 23.5t118.5 70.5t81.5 125t29.5 180v639q0 90 -45.5 131.5t-128.5 53.5q-7 1 -7 21t5.5 39.5t13.5 19.5h484q10 0 14.5 -39t-6.5 -41q-33 -4 -58.5 -13.5t-50 -29t-38 -55.5
t-13.5 -87v-624q0 -186 -76 -318t-205.5 -196t-298.5 -64z" />
    <glyph glyph-name="uni01D4" unicode="&#x1d4;" horiz-adv-x="1331" 
d="M924 1401l-193 -277q-9 -12 -69 -11.5t-68 11.5l-191 277q-15 22 30.5 55.5t66.5 13.5l164 -149l161 149q21 20 67.5 -13.5t31.5 -55.5zM449 -33q-63 0 -111.5 24t-76 64t-41 87.5t-13.5 99.5v446q0 36 -16 63.5t-40.5 42.5t-44 22.5t-36.5 10.5q-9 1 -6.5 33t14.5 33
l362 96q19 6 33.5 -7t9.5 -30q-11 -42 -14 -84t-0.5 -96.5t2.5 -60.5v-383q0 -39 1.5 -62.5t9 -50t21 -40t38 -23t59.5 -9.5q40 0 78 5.5t81 19t69 44t26 73.5v403q0 36 -15.5 63.5t-40 42.5t-44 22.5t-37.5 10.5q-9 1 -6.5 33t14.5 33l362 96q19 6 33.5 -7t9.5 -30
q-11 -42 -14 -86t-0.5 -101.5t2.5 -62.5v-479q0 -47 14.5 -74t35.5 -32t45 -6.5t42.5 3t28.5 -2.5q16 -8 16 -35q0 -31 -107 -70t-179 -39q-21 0 -46.5 22.5t-45 45.5t-50.5 37t-63 -4q-225 -101 -360 -101z" />
    <glyph glyph-name="Gcaron" unicode="&#x1e6;" horiz-adv-x="1630" 
d="M1065 1882l-193 -276q-9 -12 -69 -11.5t-68 11.5l-190 276q-15 22 30 56t66 14l164 -150l162 150q21 20 67 -14t31 -56zM987 -33q-146 0 -277 29.5t-240.5 90t-188.5 147t-123.5 205t-44.5 259.5q0 117 31 226.5t98.5 208.5t164.5 172.5t238.5 117t310.5 43.5
q126 0 231 -22t159 -57.5t40 -73.5l-36 -94q-21 -57 -43 -76.5t-46 -12.5t-65.5 30t-89.5 49.5t-131 46.5t-178 20q-228 0 -326 -113.5t-98 -337.5q0 -155 46.5 -289.5t123.5 -225t178 -142t209 -51.5q104 0 139 42.5t35 127.5v35q0 111 -56.5 161t-181.5 68q-18 3 -4 36
q15 37 43 48l13 2h567q28 0 38.5 -20.5t5 -41.5t-17.5 -24q-71 -19 -105 -60.5t-34 -132.5v-69q0 -83 45 -146q-88 -52 -241 -114t-189 -62z" />
    <glyph glyph-name="gcaron" unicode="&#x1e7;" horiz-adv-x="1232" 
d="M498 1124l-191 277q-15 22 30 55.5t66 13.5l164 -149l162 149q21 20 67 -13.5t31 -55.5l-192 -277q-9 -12 -69 -11.5t-68 11.5zM1073 969q57 0 80 -52q23 -54 -9 -109q-45 -74 -155 -75h-41q8 -36 8 -84q0 -66 -22.5 -126.5t-69.5 -112t-129.5 -82.5t-191.5 -31
q-82 0 -133.5 -31t-51.5 -73q0 -30 28.5 -47t82.5 -17h383q244 0 244 -182q0 -107 -83 -203t-226 -154.5t-308 -58.5q-83 0 -147.5 17t-102 43t-61.5 60.5t-32.5 65t-8.5 60.5q0 9 10.5 23t30 32.5t39.5 35t48 40t46 39.5q-62 37 -120 100t-58 94q0 28 12 44t45 38l170 105
q-108 41 -162.5 124t-54.5 185q0 66 23 126.5t70 112t130 82.5t193 31q167 0 276 -74q43 -22 70.5 -25t44 9.5t30.5 27.5t40 28.5t63 13.5zM586 412q72 0 104.5 50t32.5 130q0 111 -63 196.5t-148 85.5q-70 0 -105.5 -52.5t-35.5 -135.5q0 -109 63 -191.5t152 -82.5z
M713 -82h-336h-8q-17 -91 -17 -121q0 -58 62.5 -103.5t183.5 -45.5q160 0 227 80q47 55 23 114q-22 58 -96 73q-19 3 -39 3z" />
    <glyph glyph-name="uni0218" unicode="&#x218;" horiz-adv-x="1165" 
d="M535 -33q-87 0 -185.5 20t-168 59.5t-56.5 84.5l22 84q13 50 28 70t36 15t44.5 -23.5t60.5 -46.5t78.5 -53.5t103.5 -43.5t129 -18q219 0 219 182q0 57 -37.5 96t-167.5 123l-147 102q-84 55 -130.5 88.5t-94.5 75t-71 76t-37 78t-14 94.5q0 96 45.5 179.5t118.5 138.5
t163.5 86.5t182.5 31.5q77 0 160 -19.5t135.5 -53t40.5 -66.5l-26 -82q-18 -54 -36.5 -72t-37 -8.5t-49 33t-64.5 51t-91.5 48t-121.5 20.5q-94 0 -145 -43.5t-51 -120.5q0 -68 41 -113.5t151 -115.5l174 -117q93 -60 149.5 -103.5t99 -91t60 -95.5t17.5 -107
q0 -96 -44 -180t-117 -141t-169 -89.5t-198 -32.5zM389 -766q-15 -9 -46 11q-31 21 -18 37q1 2 3 3q78 69 138 153t60 152q0 19 -22 39.5t-48.5 35t-48.5 36t-22 41.5q0 48 67 112t111 64t109 -65t65 -113q0 -121 -101.5 -266.5t-246.5 -239.5z" />
    <glyph glyph-name="uni0219" unicode="&#x219;" horiz-adv-x="935" 
d="M428 -33q-85 0 -165.5 20t-125.5 50t-33 59l48 119q9 19 21 23t28 -4.5t35 -23.5t46 -34t56.5 -35.5t70.5 -27.5t85 -11q85 0 128.5 28.5t32 69.5t-74.5 74l-281 142q-78 40 -125 99.5t-58.5 122t9 126t68.5 113.5t130.5 81t184.5 31q76 0 148 -17.5t112 -46t27 -57.5
l-50 -116q-13 -28 -32.5 -28t-48 19.5t-61 43t-83.5 43.5t-104 20q-65 0 -98.5 -29t-21.5 -67.5t66 -65.5l293 -151q83 -42 132.5 -102.5t61 -123t-11 -125t-74.5 -110.5t-139.5 -78.5t-195.5 -30.5zM362 -766q-15 -9 -46 11q-31 21 -18 37q1 2 3 3q78 69 138.5 153
t60.5 152q0 19 -22 39.5t-49 35t-49 36t-22 41.5q0 48 67.5 112t111.5 64t109 -65t65 -113q0 -121 -102 -266.5t-247 -239.5z" />
    <glyph glyph-name="uni021A" unicode="&#x21a;" horiz-adv-x="1421" 
d="M377 0q-8 0 -14.5 19t-6 38.5t8.5 20.5q122 17 178.5 49t56.5 109v983q0 40 -15.5 54.5t-52.5 14.5h-38q-128 0 -223 -38t-119 -95q-12 -31 -51 -32q-33 -1 -40 19v13q35 116 50 258q3 31 15.5 36t47.5 1q99 -10 200 -13t388 -3q476 0 651 16q19 1 34.5 2t22.5 -8.5
t0 -30.5q-45 -146 -65 -258q-5 -27 -37.5 -28.5t-40.5 28.5q-19 56 -94 94.5t-193 38.5h-49q-40 0 -61 -15t-21 -54v-983q0 -33 11.5 -57.5t30 -40.5t50.5 -28t65 -18.5t81 -13.5q7 -4 7.5 -21t-6.5 -37t-15 -20h-756zM559 -766q-10 -6 -30.5 2.5t-30 22t1.5 26.5
q77 70 136.5 153.5t59.5 151.5q0 19 -22 39.5t-48.5 35t-48.5 36t-22 41.5q0 48 67 112t111 64q45 0 109.5 -64.5t64.5 -113.5q0 -121 -101.5 -266.5t-246.5 -239.5z" />
    <glyph glyph-name="uni021B" unicode="&#x21b;" horiz-adv-x="917" 
d="M457 -33q-71 0 -147.5 46.5t-76.5 90.5v582q0 91 -33.5 122.5t-136.5 31.5q-18 0 -20 35t12 40q119 43 199 99t172 155q17 16 37.5 14.5t36 -18t10.5 -35.5q-14 -57 -14 -92q0 -57 20.5 -77.5t58.5 -20.5q37 0 126.5 12.5t117.5 14.5q31 3 31 -47q0 -28 -10 -61.5
t-26 -56.5t-32 -22l-96 8q-56 3 -99 3.5t-68 -21.5t-25 -70v-456q0 -58 18 -82.5t74 -24.5q96 0 245 19q7 1 16.5 -17.5t11 -36t-8.5 -24.5q-169 -61 -393 -111zM428 -737q-15 -9 -46 11q-31 21 -18 37q1 2 3 3q78 69 138 153t60 152q0 19 -22 39.5t-48.5 35t-48.5 36
t-22 41.5q0 48 67 112t111 64t109 -65t65 -113q0 -121 -101.5 -266.5t-246.5 -239.5z" />
    <glyph glyph-name="uni0228" unicode="&#x228;" horiz-adv-x="1396" 
d="M1237 340q9 13 43.5 2t34.5 -33q0 -35 -17.5 -87t-46.5 -103.5t-73.5 -87.5t-92.5 -35q-266 12 -368 12q-23 -12 -23 -31q0 -16 14 -33.5t34 -34.5t39.5 -36.5t33.5 -48t14 -62.5q0 -66 -61 -121t-154 -55q-89 0 -143 52q-34 34 -23 57q7 15 33 14q92 -4 124 18.5
t32 71.5q0 37 -16 66t-32 52t-16 44q0 28 29 47q-373 4 -530 -12q-9 -1 -15.5 20t-6 43.5t8.5 24.5q100 27 132 45q73 50 75 156v895q0 44 -13 76t-40 51.5t-51.5 30.5t-63.5 22q-7 2 -7.5 22t4.5 38.5t11 17.5q51 -8 139.5 -11.5t157 -3.5t157.5 1t97 1q108 0 277.5 6
t216.5 7q36 0 44.5 -22.5t-1.5 -59.5l-47 -197q-5 -23 -33.5 -23t-34.5 23q-19 57 -49 87t-99 46.5t-192 16.5q-95 0 -133.5 -30.5t-38.5 -102.5v-324q0 -37 17 -50.5t51 -13.5h53q116 0 216.5 20t152.5 62q18 16 40.5 8.5t8.5 -38.5l-111 -258q-13 -30 -35 -30t-40 26
q-32 48 -98.5 72t-147.5 24h-39q-34 0 -51 -13.5t-17 -50.5v-325q0 -89 42.5 -126.5t158.5 -37.5q95 0 180 24t141.5 61.5t91.5 70.5t56 63z" />
    <glyph glyph-name="uni0229" unicode="&#x229;" horiz-adv-x="1069" 
d="M938 166q8 2 17 -13.5t11.5 -30t-1.5 -18.5q-29 -13 -125 -65.5t-129 -65.5v-2q-31 -11 -31 -34q0 -16 14 -33.5t34 -34.5t39.5 -36.5t33.5 -48.5t14 -63q0 -66 -61 -121t-154 -55q-89 0 -143 52q-34 34 -23 57q7 15 33 14q92 -4 124 18.5t32 71.5q0 37 -16 66t-32 52
t-16 44q0 30 35 51q-98 9 -183 38.5t-159 83.5t-117 144t-43 207q0 78 19 153.5t61 147t101.5 125.5t148 86.5t194.5 32.5q88 0 155 -24.5t102.5 -59.5t58 -80t29 -79t6.5 -64q0 -42 -13 -101.5t-32 -97.5l-564 -16q16 -83 56 -147.5t94.5 -103t116.5 -58t127 -19.5
q51 0 186 27zM541 842q-189 0 -193 -254l383 12q15 99 -38.5 170.5t-151.5 71.5z" />
    <glyph glyph-name="circumflex" unicode="&#x2c6;" horiz-adv-x="610" 
d="M565 1178q15 -22 -31 -56t-67 -14l-162 149l-164 -149q-21 -20 -66 14t-30 56l191 276q8 11 68 11.5t69 -11.5z" />
    <glyph glyph-name="caron" unicode="&#x2c7;" horiz-adv-x="610" 
d="M565 1401l-192 -277q-9 -12 -69 -11.5t-68 11.5l-191 277q-15 22 30 55.5t66 13.5l164 -149l162 149q21 20 67 -13.5t31 -55.5z" />
    <glyph glyph-name="breve" unicode="&#x2d8;" horiz-adv-x="688" 
d="M598 1468q19 0 27.5 -3t15 -19.5t6.5 -50.5q0 -41 -16.5 -83.5t-50 -82.5t-95 -65t-141.5 -25t-141.5 25t-95 65t-50 82.5t-16.5 83.5q0 34 6.5 50.5t15 19.5t27.5 3q30 0 44.5 -3.5t18 -10.5t3 -17.5t0.5 -25.5q6 -51 56.5 -84t131.5 -33t131.5 33t56.5 84
q1 15 0.5 25.5t3 17.5t18 10.5t44.5 3.5z" />
    <glyph glyph-name="dotaccent" unicode="&#x2d9;" horiz-adv-x="413" 
d="M207 1135q-43 0 -104.5 60t-61.5 108q0 45 62 104t104 59t104 -59t62 -104q0 -48 -61.5 -108t-104.5 -60z" />
    <glyph glyph-name="ring" unicode="&#x2da;" horiz-adv-x="413" 
d="M207 1118q-71 0 -118.5 47t-47.5 119t47.5 119t118.5 47t118.5 -47t47.5 -119t-47.5 -119t-118.5 -47zM207 1217q28 0 47.5 19.5t19.5 47.5t-19.5 48t-47.5 20t-48 -20t-20 -48t20 -47.5t48 -19.5z" />
    <glyph glyph-name="ogonek" unicode="&#x2db;" horiz-adv-x="661" 
d="M377 6l244 -6q-23 -9 -66 -25t-75 -27.5t-70.5 -31t-63.5 -39t-42 -48.5t-17 -62q0 -45 27 -74t77 -29q54 0 95.5 31t52.5 63q6 18 33 6q30 -13 33 -41q1 -10 -3 -20q-6 -16 -20 -36t-40 -44.5t-58.5 -44.5t-79.5 -33.5t-99 -13.5q-35 0 -69.5 5.5t-70.5 19t-63 34.5
t-44 55.5t-17 78.5q0 175 301 264q43 13 44 15t-9 3z" />
    <glyph glyph-name="tilde" unicode="&#x2dc;" horiz-adv-x="702" 
d="M590 1430q5 5 24.5 -4.5t35.5 -23t12 -18.5q-11 -14 -34.5 -44.5t-35 -45t-29.5 -35.5t-34 -35t-33 -26q-48 0 -135 36t-119 36q-23 0 -62 -20t-67 -48q-5 -5 -24.5 4.5t-35.5 22.5t-12 18q12 16 35 45.5t35 44.5t29.5 35.5t33.5 35t33 26.5q47 0 134 -36t120 -36
q23 0 63.5 20.5t65.5 47.5z" />
    <glyph glyph-name="hungarumlaut" unicode="&#x2dd;" horiz-adv-x="839" 
d="M45 1204l178 266q17 25 70 -7.5t89 -81.5t13 -66l-262 -197q-20 -15 -61.5 24.5t-26.5 61.5zM446 1178l195 276q17 25 64 0.5t76.5 -67t6.5 -60.5l-274 -209q-20 -15 -51.5 11.5t-16.5 48.5z" />
    <glyph glyph-name="gravecomb" unicode="&#x300;" horiz-adv-x="0" 
d="M-45 1204q15 -22 -26.5 -61.5t-61.5 -24.5l-262 197q-23 17 13 66t89 81.5t70 7.5z" />
    <glyph glyph-name="acutecomb" unicode="&#x301;" horiz-adv-x="0" 
d="M-397 1204l178 266q17 25 70 -7.5t89 -81.5t13 -66l-262 -197q-20 -15 -61.5 24.5t-26.5 61.5z" />
    <glyph glyph-name="uni0302" unicode="&#x302;" horiz-adv-x="0" 
d="M-45 1178q15 -22 -31 -56t-67 -14l-162 149l-164 -149q-21 -20 -66 14t-30 56l190 276q8 11 68 11.5t69 -11.5z" />
    <glyph glyph-name="tildecomb" unicode="&#x303;" horiz-adv-x="0" 
d="M-113 1430q5 5 24.5 -4.5t35.5 -23t12 -18.5q-11 -14 -34.5 -44.5t-35 -45t-29.5 -35.5t-34 -35t-33 -26q-47 0 -134 36t-120 36q-23 0 -62 -20t-67 -48q-5 -5 -24.5 4.5t-35.5 22.5t-12 18q12 16 35 45.5t35 44.5t29.5 35.5t33.5 35t33 26.5q48 0 135 -36t119 -36
q23 0 63.5 20.5t65.5 47.5z" />
    <glyph glyph-name="uni0304" unicode="&#x304;" horiz-adv-x="0" 
d="M-55 1352q24 0 9 -50q-15 -53 -44 -74q-8 -7 -16 -7h-533q-24 0 -11 48q15 52 45 75q10 8 19 8h531z" />
    <glyph glyph-name="uni0306" unicode="&#x306;" horiz-adv-x="0" 
d="M-90 1468q19 0 27.5 -3t15 -19.5t6.5 -50.5q0 -41 -16.5 -83.5t-50 -82.5t-95 -65t-141.5 -25t-141.5 25t-95 65t-50 82.5t-16.5 83.5q0 34 6.5 50.5t15 19.5t27.5 3q30 0 44.5 -3.5t18 -10.5t3 -17.5t0.5 -25.5q6 -51 56.5 -84t131.5 -33t131.5 33t56.5 84
q1 15 0.5 25.5t3 17.5t18 10.5t44.5 3.5z" />
    <glyph glyph-name="uni0307" unicode="&#x307;" horiz-adv-x="0" 
d="M-207 1135q-43 0 -104.5 60t-61.5 108q0 45 62 104t104 59t104 -59t62 -104q0 -48 -61.5 -108t-104.5 -60z" />
    <glyph glyph-name="uni0308" unicode="&#x308;" horiz-adv-x="0" 
d="M-655 1135q-43 0 -104.5 60t-61.5 108q0 45 62 104t104 59t104 -59t62 -104q0 -48 -61.5 -108t-104.5 -60zM-207 1135q-43 0 -104.5 60t-61.5 108q0 45 62 104t104 59t104 -59t62 -104q0 -48 -61.5 -108t-104.5 -60z" />
    <glyph glyph-name="uni030A" unicode="&#x30a;" horiz-adv-x="0" 
d="M-207 1118q-71 0 -118.5 47t-47.5 119t47.5 119t118.5 47t118.5 -47t47.5 -119t-47.5 -119t-118.5 -47zM-207 1217q28 0 48 19.5t20 47.5t-20 48t-48 20t-47.5 -20t-19.5 -48t19.5 -47.5t47.5 -19.5z" />
    <glyph glyph-name="uni030B" unicode="&#x30b;" horiz-adv-x="0" 
d="M-795 1204l179 266q17 25 70 -7.5t89 -81.5t13 -66l-263 -197q-20 -15 -61.5 24.5t-26.5 61.5zM-393 1178l194 276q17 25 64 0.5t77 -67t7 -60.5l-275 -209q-20 -15 -51 11.5t-16 48.5z" />
    <glyph glyph-name="uni030C" unicode="&#x30c;" horiz-adv-x="0" 
d="M-29 1401l-192 -277q-9 -12 -69 -11.5t-68 11.5l-191 277q-15 22 30 55.5t66 13.5l164 -149l162 149q21 20 67 -13.5t31 -55.5z" />
    <glyph glyph-name="uni0312" unicode="&#x312;" horiz-adv-x="0" 
d="M-139 1706q15 9 46 -11q31 -21 18 -37q-1 -2 -3 -3q-78 -69 -138 -153t-60 -152q0 -19 22 -39.5t48.5 -35t48.5 -36t22 -41.5q0 -48 -66.5 -112t-111.5 -64q-44 0 -109 65t-65 113q0 121 101.5 266.5t246.5 239.5z" />
    <glyph glyph-name="uni0326" unicode="&#x326;" horiz-adv-x="0" 
d="M-305 -766q-16 -9 -47 11q-30 23 -15 40q78 69 138.5 153t60.5 152q0 19 -22 39.5t-48.5 35t-48.5 36t-22 41.5q0 48 67 112t111 64t109 -65t65 -113q0 -121 -101.5 -266.5t-246.5 -239.5z" />
    <glyph glyph-name="uni0327" unicode="&#x327;" horiz-adv-x="0" 
d="M-256 -455q-89 0 -143 52q-34 34 -23 57q7 15 33 14q92 -4 124 18.5t32 71.5q0 37 -16 66t-32 52t-16 44q0 33 42.5 56t109.5 24v-29q-31 -11 -31 -34q0 -16 14 -33.5t33.5 -34.5t39.5 -36.5t34 -48.5t14 -63q0 -66 -61 -121t-154 -55z" />
    <glyph glyph-name="uni0328" unicode="&#x328;" horiz-adv-x="0" 
d="M-285 6l244 -6q-23 -9 -66 -25t-75 -27.5t-70.5 -31t-63.5 -39t-42 -48.5t-17 -62q0 -45 27.5 -74t77.5 -29q54 0 95 31t52 63q6 18 33 6q29 -13 33 -40q2 -11 -2 -21q-6 -16 -20 -36t-40 -44.5t-58.5 -44.5t-79.5 -33.5t-99 -13.5q-45 0 -88 9.5t-84.5 29.5t-67 60
t-25.5 94q0 175 301 264q43 13 44 15t-9 3z" />
    <glyph glyph-name="Wgrave" unicode="&#x1e80;" horiz-adv-x="2385" 
d="M1020 1796q-23 17 13 66.5t89 82t70 7.5l178 -266q15 -22 -26.5 -62t-61.5 -25zM2302 1434q20 0 23 -38t-17 -42q-34 -4 -59 -13.5t-52 -31t-51.5 -62t-46.5 -100.5l-307 -813q-45 -117 -59.5 -157t-27.5 -89.5t-13 -87.5q0 -9 -73 -25t-77 -6l-319 805l-207 -440
q-63 -135 -83 -201t-20 -133q0 -9 -73.5 -25t-77.5 -6l-477 1176q-47 117 -93.5 159t-113.5 52q-20 3 -17 40.5t23 37.5h586q20 0 22 -37t-16 -39q-84 -11 -104.5 -60.5t18.5 -150.5l303 -768l192 424q39 84 42 141t-31 150q-56 143 -99 196.5t-90 65.5q-16 4 -14.5 41
t20.5 37h478q28 0 28 -19q0 -8 -15 -31.5t-28 -51.5t-16.5 -77t20.5 -108l283 -731l270 731q14 37 20 66t6 49.5t-8.5 36t-17 24t-27 16t-31.5 10.5t-36 7q-18 3 -16 40.5t22 37.5h457z" />
    <glyph glyph-name="wgrave" unicode="&#x1e81;" horiz-adv-x="1994" 
d="M825 1315q-23 17 13 66t89 81.5t70 7.5l179 -266q15 -22 -27 -61.5t-62 -24.5zM1757 952q19 0 19 -40t-17 -44q-46 -13 -92 -66t-84 -147l-188 -458q-67 -157 -76 -201l-150 -21l-251 613l-164 -391q-59 -137 -74 -201l-152 -21l-278 682q-78 186 -182 211
q-17 3 -17 43.5t19 40.5h446q16 0 22.5 -19.5t1 -40t-19.5 -24.5q-67 -21 6 -211l142 -358l184 444q-29 67 -54 94.5t-71 30.5q-20 2 -20 43t22 41h426q24 0 24.5 -38t-20.5 -46q-66 -26 8 -211l140 -354l139 354q23 58 33 89t12.5 61t-11.5 43.5t-46 17.5q-17 2 -17 43
t19 41h321z" />
    <glyph glyph-name="Wacute" unicode="&#x1e82;" horiz-adv-x="2385" 
d="M1110 1599q-20 -15 -61.5 25t-26.5 62l178 266q17 25 70 -7.5t89 -82t13 -66.5zM2302 1434q20 0 23 -38t-17 -42q-34 -4 -59 -13.5t-52 -31t-51.5 -62t-46.5 -100.5l-307 -813q-45 -117 -59.5 -157t-27.5 -89.5t-13 -87.5q0 -9 -73 -25t-77 -6l-319 805l-207 -440
q-63 -135 -83 -201t-20 -133q0 -9 -73.5 -25t-77.5 -6l-477 1176q-47 117 -93.5 159t-113.5 52q-20 3 -17 40.5t23 37.5h586q20 0 22 -37t-16 -39q-84 -11 -104.5 -60.5t18.5 -150.5l303 -768l192 424q39 84 42 141t-31 150q-56 143 -99 196.5t-90 65.5q-16 4 -14.5 41
t20.5 37h478q28 0 28 -19q0 -8 -15 -31.5t-28 -51.5t-16.5 -77t20.5 -108l283 -731l270 731q14 37 20 66t6 49.5t-8.5 36t-17 24t-27 16t-31.5 10.5t-36 7q-18 3 -16 40.5t22 37.5h457z" />
    <glyph glyph-name="wacute" unicode="&#x1e83;" horiz-adv-x="1994" 
d="M913 1118q-20 -15 -60.5 24.5t-25.5 61.5l179 266q17 25 70 -7.5t89 -81.5t13 -66zM1757 952q19 0 19 -40t-17 -44q-46 -13 -92 -66t-84 -147l-188 -458q-67 -157 -76 -201l-150 -21l-251 613l-164 -391q-59 -137 -74 -201l-152 -21l-278 682q-78 186 -182 211
q-17 3 -17 43.5t19 40.5h446q16 0 22.5 -19.5t1 -40t-19.5 -24.5q-67 -21 6 -211l142 -358l184 444q-29 67 -54 94.5t-71 30.5q-20 2 -20 43t22 41h426q24 0 24.5 -38t-20.5 -46q-66 -26 8 -211l140 -354l139 354q23 58 33 89t12.5 61t-11.5 43.5t-46 17.5q-17 2 -17 43
t19 41h321z" />
    <glyph glyph-name="Wdieresis" unicode="&#x1e84;" horiz-adv-x="2412" 
d="M1028 1616q-43 0 -104.5 60t-61.5 108q0 45 62 104.5t104 59.5q43 0 104.5 -59.5t61.5 -104.5q0 -48 -61 -108t-105 -60zM1477 1616q-43 0 -104.5 60t-61.5 108q0 45 62 104.5t104 59.5q43 0 104 -59.5t61 -104.5q0 -48 -60.5 -108t-104.5 -60zM2302 1434q20 0 23 -38
t-17 -42q-34 -4 -59 -13.5t-52 -31t-51.5 -62t-46.5 -100.5l-307 -813q-45 -117 -59.5 -157t-27.5 -89.5t-13 -87.5q0 -9 -73 -25t-77 -6l-319 805l-207 -440q-63 -135 -83 -201t-20 -133q0 -9 -73.5 -25t-77.5 -6l-477 1176q-47 117 -93.5 159t-113.5 52q-20 3 -17 40.5
t23 37.5h586q20 0 22 -37t-16 -39q-84 -11 -104.5 -60.5t18.5 -150.5l303 -768l192 424q39 84 42 141t-31 150q-56 143 -99 196.5t-90 65.5q-16 4 -14.5 41t20.5 37h478q28 0 28 -19q0 -8 -15 -31.5t-28 -51.5t-16.5 -77t20.5 -108l283 -731l270 731q14 37 20 66t6 49.5
t-8.5 36t-17 24t-27 16t-31.5 10.5t-36 7q-18 3 -16 40.5t22 37.5h457z" />
    <glyph glyph-name="wdieresis" unicode="&#x1e85;" horiz-adv-x="1994" 
d="M827 1135q-44 0 -104.5 60t-60.5 108q0 45 61 104t104 59q42 0 104 -59t62 -104q0 -48 -61.5 -108t-104.5 -60zM1276 1135q-44 0 -105 60t-61 108q0 45 61 104t105 59q42 0 104 -59t62 -104q0 -48 -61.5 -108t-104.5 -60zM1757 952q19 0 19 -40t-17 -44q-46 -13 -92 -66
t-84 -147l-188 -458q-67 -157 -76 -201l-150 -21l-251 613l-164 -391q-59 -137 -74 -201l-152 -21l-278 682q-78 186 -182 211q-17 3 -17 43.5t19 40.5h446q16 0 22.5 -19.5t1 -40t-19.5 -24.5q-67 -21 6 -211l142 -358l184 444q-29 67 -54 94.5t-71 30.5q-20 2 -20 43
t22 41h426q24 0 24.5 -38t-20.5 -46q-66 -26 8 -211l140 -354l139 354q23 58 33 89t12.5 61t-11.5 43.5t-46 17.5q-17 2 -17 43t19 41h321z" />
    <glyph glyph-name="uni1E9E" unicode="&#x1e9e;" horiz-adv-x="1593" 
d="M1290 686q81 -66 129.5 -147.5t59.5 -159.5t-8.5 -153t-66 -131t-121.5 -90t-167 -34q-70 0 -145 17.5t-123 47.5t-37 60l47 137q14 45 37 52t53 -14.5t62 -49.5t75.5 -53t81.5 -25q61 0 77 36q24 56 -89 147l-16 12l-156 117q-64 48 -108 98t-67 95.5t-27.5 93t3 89.5
t31 88t50.5 83.5t68 81t77.5 76.5t83.5 73q-121 31 -260 31q-142 0 -201.5 -59.5t-59.5 -209.5v-731q0 -52 8.5 -86.5t28.5 -53.5t41.5 -28t57.5 -16q6 -4 6 -21.5t-6.5 -38t-14.5 -20.5h-590q-8 0 -14.5 20.5t-6.5 38t7 21.5q148 18 148 184v682q0 131 105.5 251.5
t280.5 194.5t367 74q225 0 361 -100q0 -65 -13 -82q-34 -33 -78.5 -70.5t-75.5 -62.5t-63.5 -55.5t-50 -54t-26.5 -52.5t-1 -56.5t33.5 -61t71.5 -70.5z" />
    <glyph glyph-name="uni1EBC" unicode="&#x1ebc;" horiz-adv-x="1396" 
d="M920 1911q5 5 24 -4.5t35 -22.5t12 -18q-12 -16 -35 -45.5t-35 -44.5t-29.5 -35.5t-33.5 -35t-33 -26.5q-47 0 -134 36t-120 36q-23 0 -62 -20t-67 -48q-5 -5 -24 4.5t-35 23t-12 18.5q11 14 34.5 44.5t35 45t29.5 35.5t34 35t33 26q47 0 134 -36t120 -36q23 0 63.5 20.5
t65.5 47.5zM72 -4q-9 -1 -15.5 20t-6 43.5t8.5 24.5q100 27 132 45q73 50 75 156v895q0 44 -13 76t-40 51.5t-51.5 30.5t-63.5 22q-7 2 -7.5 22t4.5 38.5t11 17.5q51 -8 139.5 -11.5t157 -3.5t157.5 1t97 1q108 0 277.5 6t216.5 7q36 0 44.5 -22.5t-1.5 -59.5l-47 -197
q-5 -23 -33.5 -23t-34.5 23q-19 57 -49 87t-99 46.5t-192 16.5q-95 0 -133.5 -30.5t-38.5 -102.5v-324q0 -37 17 -50.5t51 -13.5h53q116 0 216.5 20t152.5 62q18 16 40.5 8.5t8.5 -38.5l-111 -258q-13 -30 -35 -30t-40 26q-32 48 -98.5 72t-147.5 24h-39q-34 0 -51 -13.5
t-17 -50.5v-325q0 -89 42.5 -126.5t158.5 -37.5q95 0 180 24t141.5 61.5t91.5 70.5t56 63q9 13 43.5 2t34.5 -33q0 -35 -17.5 -87t-46.5 -103.5t-73.5 -87.5t-92.5 -35q-278 12 -389 12q-27 0 -144 0.5t-176 0t-149.5 -3.5t-154.5 -9z" />
    <glyph glyph-name="uni1EBD" unicode="&#x1ebd;" horiz-adv-x="1069" 
d="M319 1202q-5 -5 -24 4.5t-35 22.5t-12 18q12 16 35 45.5t35 44.5t29.5 35.5t33.5 35t33 26.5q48 0 135 -36t119 -36q23 0 63.5 20.5t65.5 47.5q5 5 24 -4.5t35 -23t12 -18.5q-11 -14 -34.5 -44.5t-35 -45t-29.5 -35.5t-34 -35t-33 -26q-48 0 -134 36t-119 36
q-23 0 -62.5 -20t-67.5 -48zM938 166q8 2 17 -13.5t11.5 -30t-1.5 -18.5q-29 -12 -93 -47.5t-116.5 -62.5t-71.5 -27q-86 0 -166 14t-159 48.5t-137 87.5t-94 137t-36 190q0 78 19 153.5t61 147t101.5 125.5t148 86.5t194.5 32.5q88 0 155 -24.5t102.5 -59.5t58 -80t29 -79
t6.5 -64q0 -42 -13 -101.5t-32 -97.5l-564 -16q16 -83 56 -147.5t94.5 -103t116.5 -58t127 -19.5q51 0 186 27zM541 842q-189 0 -193 -254l383 12q15 99 -38.5 170.5t-151.5 71.5z" />
    <glyph glyph-name="Ygrave" unicode="&#x1ef2;" horiz-adv-x="1720" 
d="M686 1796q-23 17 12.5 66.5t88 82t69.5 7.5l180 -266q15 -22 -26.5 -62t-61.5 -25zM1501 1434q17 0 20 -38t-14 -42q-60 -8 -117 -55.5t-124 -151.5l-316 -492v-391q0 -52 13.5 -86.5t43.5 -53.5t62.5 -28t85.5 -16q7 -1 7 -21t-5.5 -39.5t-13.5 -19.5h-688
q-8 0 -14 20.5t-5.5 38t6.5 21.5q113 16 160 52.5t47 131.5v377l-336 504q-72 107 -122 153.5t-113 55.5q-20 4 -17 42t23 38h592q20 0 22 -38t-16 -42q-70 -10 -82 -60t47 -147l238 -356l231 356q39 60 39 105.5t-30 70t-83 31.5q-15 3 -19 23t3 38.5t18 18.5h457z" />
    <glyph glyph-name="ygrave" unicode="&#x1ef3;" horiz-adv-x="1347" 
d="M549 1315q-23 17 12.5 66t88 81.5t69.5 7.5l180 -266q15 -22 -26.5 -61.5t-61.5 -24.5zM1130 952q21 0 22 -40t-17 -44q-93 -26 -174 -209l-396 -888q-24 -52 -63.5 -88t-83.5 -52t-79 -22t-67 -6q-83 0 -131 39t-75 110q-14 41 -13 56.5t18 18.5t51 -3q61 -6 103 -6
q74 0 128.5 13.5t104 53t79.5 107.5l-295 667q-46 105 -87.5 153t-86.5 56q-17 3 -17 43.5t19 40.5h460q23 0 24.5 -36t-19.5 -48q-28 -17 -39 -38.5t-4.5 -64t36.5 -106.5l150 -340l145 336q45 104 35 155t-78 58q-17 2 -17 43t19 41h348z" />
    <glyph glyph-name="endash" unicode="&#x2013;" horiz-adv-x="1351" 
d="M160 504q-17 0 -24.5 27t0 54t24.5 27h1032q17 0 24.5 -27t0 -54t-24.5 -27h-1032z" />
    <glyph glyph-name="emdash" unicode="&#x2014;" horiz-adv-x="2519" 
d="M160 504q-17 0 -24.5 27t0 54t24.5 27h2199q17 0 24.5 -27t0 -54t-24.5 -27h-2199z" />
    <glyph glyph-name="quoteleft" unicode="&#x2018;" horiz-adv-x="641" 
d="M471 1450q16 8 47 -14q31 -23 14 -37q-79 -72 -138.5 -154.5t-59.5 -150.5q0 -19 22 -39.5t48.5 -35.5t48.5 -36t22 -41q0 -48 -67 -112t-111 -64t-109 65t-65 113q0 121 101.5 266.5t246.5 239.5z" />
    <glyph glyph-name="quoteright" unicode="&#x2019;" horiz-adv-x="641" 
d="M190 788q-10 -5 -30.5 4.5t-31 23t0.5 26.5q78 69 138.5 153t60.5 152q0 18 -22 38t-49 35t-49 36.5t-22 41.5q0 46 67.5 111.5t111.5 65.5q43 0 108.5 -66t65.5 -113q0 -121 -102 -266.5t-247 -241.5z" />
    <glyph glyph-name="quotesinglbase" unicode="&#x201a;" horiz-adv-x="600" 
d="M139 -356q-15 -9 -46 11q-31 21 -18 37l3 3q79 72 138.5 154.5t59.5 150.5q0 19 -22 39.5t-48.5 35t-48.5 36t-22 41.5q0 48 67 112t111 64t109 -65t65 -113q0 -121 -101.5 -266.5t-246.5 -239.5z" />
    <glyph glyph-name="quotedblleft" unicode="&#x201c;" horiz-adv-x="1146" 
d="M471 1450q16 8 47 -14q31 -23 14 -37q-79 -72 -138.5 -154.5t-59.5 -150.5q0 -19 22 -39.5t48.5 -35.5t48.5 -36t22 -41q0 -48 -67 -112t-111 -64t-109 65t-65 113q0 121 101.5 266.5t246.5 239.5zM977 1450q16 8 47 -14q31 -23 14 -37q-79 -72 -138.5 -154.5
t-59.5 -150.5q0 -19 22 -39.5t48.5 -35.5t48.5 -36t22 -41q0 -48 -66.5 -112t-111.5 -64q-44 0 -109 65t-65 113q0 121 101.5 266.5t246.5 239.5z" />
    <glyph glyph-name="quotedblright" unicode="&#x201d;" horiz-adv-x="1146" 
d="M190 788q-10 -5 -30.5 4.5t-31 23t0.5 26.5q78 69 138.5 153t60.5 152q0 18 -22 38t-49 35t-49 36.5t-22 41.5q0 46 67.5 111.5t111.5 65.5q43 0 108.5 -66t65.5 -113q0 -121 -102 -266.5t-247 -241.5zM696 788q-10 -5 -30 4t-31.5 24t0.5 26q78 69 138.5 153t60.5 152
q0 18 -22 38t-49 35t-49 36.5t-22 41.5q0 46 67 111.5t111 65.5q43 0 108.5 -66t65.5 -113q0 -121 -101.5 -267t-246.5 -241z" />
    <glyph glyph-name="quotedblbase" unicode="&#x201e;" horiz-adv-x="1105" 
d="M139 -358q-16 -8 -46 12q-30 22 -15 39q79 72 138.5 154.5t59.5 150.5q0 19 -22 39.5t-48.5 35t-48.5 36t-22 41.5q0 48 67 112t111 64t109 -65.5t65 -113.5q0 -121 -101.5 -266t-246.5 -239zM645 -358q-10 -5 -30 3t-31.5 22.5t0.5 25.5q79 72 138.5 154.5t59.5 150.5
q0 19 -22 39.5t-48.5 35t-48.5 36t-22 41.5q0 48 67 112t111 64t109 -65.5t65 -113.5q0 -121 -101.5 -266t-246.5 -239z" />
    <glyph glyph-name="dagger" unicode="&#x2020;" horiz-adv-x="882" 
d="M684 1118l96 -168l-4 -2q-52 84 -121 84q-64 0 -206 -67q17 -130 108 -183q-17 -20 -29 -104l-84 -574h-4l-84 574q-13 85 -28 104q89 49 106 176q-108 -51 -155 -51q-51 0 -78 47l-99 168l4 2q51 -82 119 -82q29 0 70 12.5t64.5 23t74.5 34.5q-9 64 -48.5 141t-39.5 109
q0 39 26.5 65.5t69.5 26.5t70 -26.5t27 -65.5q0 -32 -39 -107.5t-49 -136.5q103 49 153 49q52 0 80 -49z" />
    <glyph glyph-name="daggerdbl" unicode="&#x2021;" horiz-adv-x="884" 
d="M281 948q-51 0 -78 47l-99 168l5 2q51 -82 118 -82q61 0 205 68q-10 40 -48 108.5t-38 102.5q0 39 26.5 65.5t69.5 26.5t70 -26.5t27 -65.5q0 -34 -36.5 -101.5t-47.5 -99.5q103 47 151 47q52 0 80 -49l96 -168l-4 -2q-52 84 -121 84q-29 0 -68 -11.5t-63.5 -22
t-72.5 -33.5q20 -95 104 -142q-16 -19 -41 -104l-74 -244l-73 244q-25 85 -41 104q81 48 102 131q-103 -47 -149 -47zM604 76q51 0 78 -47l98 -168l-4 -2q-51 82 -119 82q-28 0 -67 -11.5t-63.5 -22.5t-73.5 -34q10 -40 48 -108.5t38 -102.5q0 -39 -27 -65.5t-70 -26.5
t-69.5 26.5t-26.5 65.5q0 34 36.5 101.5t47.5 99.5q-103 -47 -151 -47q-52 0 -80 49l-97 168l4 2q52 -84 121 -84q29 0 68 11.5t64.5 22.5t72.5 33q-20 95 -104 142q16 19 41 104l73 244l74 -244q25 -85 41 -104q-81 -48 -102 -131q103 47 149 47z" />
    </font>
</defs>
</svg>
